<?xml version="1.0" standalone="no"?>
<!DOCTYPE svg PUBLIC "-//W3C//DTD SVG 1.1//EN" "http://www.w3.org/Graphics/SVG/1.1/DTD/svg11.dtd" >
<svg xmlns="http://www.w3.org/2000/svg">
<metadata>Generated by IcoMoon</metadata>
<defs>
<font id="jetmenu" horiz-adv-x="1024">
<font-face units-per-em="1024" ascent="960" descent="-64" />
<missing-glyph horiz-adv-x="1024" />
<glyph unicode="&#x20;" horiz-adv-x="512" d="" />
<glyph unicode="&#xe900;" glyph-name="01" d="M167.598 399.756h208.493v208.493h-208.493v-208.493zM181.251 594.592h181.187v-181.187h-181.187v181.187zM407.753 399.756h208.493v208.493h-208.493v-208.493zM421.407 594.592h181.187v-181.187h-181.187v181.187zM647.909 400.336h208.493v208.493h-208.493v-208.493zM661.562 595.176h181.187v-181.187h-181.187v181.187zM479 312.812c0-8.361-6.778-15.138-15.138-15.138s-15.138 6.778-15.138 15.138c0 8.361 6.778 15.138 15.138 15.138s15.138-6.778 15.138-15.138zM527.288 312.812c0-8.361-6.778-15.138-15.138-15.138s-15.138 6.778-15.138 15.138c0 8.361 6.778 15.138 15.138 15.138s15.138-6.778 15.138-15.138zM575.58 312.812c0-8.361-6.778-15.138-15.138-15.138s-15.138 6.778-15.138 15.138c0 8.361 6.778 15.138 15.138 15.138s15.138-6.778 15.138-15.138zM963.97 504.149l-48.271 48.268-9.653-9.656 38.615-38.615-38.615-38.615 9.653-9.656 48.268 48.271zM108.947 552.417l-48.271-48.275 48.271-48.268 9.653 9.656-38.615 38.615 38.615 38.615z" />
<glyph unicode="&#xe901;" glyph-name="02" d="M743.458 422.697l-257.348 257.348h-202.738v-202.742l99.936-99.936v-144.343h12.725v131.618l144.688-144.688 202.738 202.742zM383.307 556.363c-4.239 1.113-8.134 3.304-11.319 6.485-4.727 4.727-7.332 11.015-7.332 17.702s2.604 12.971 7.332 17.702c4.727 4.727 11.011 7.332 17.698 7.332 6.683 0 12.971-2.604 17.702-7.332 4.727-4.727 7.332-11.011 7.332-17.698 0-6.683-2.604-12.971-7.332-17.702-3.191-3.191-7.103-5.386-11.36-6.496v3.717h-12.725v-3.71zM396.032 542.423c7.919 1.3 15.227 4.987 21.012 10.776 7.308 7.308 11.332 17.022 11.332 27.354s-4.024 20.050-11.332 27.354c-7.308 7.308-17.022 11.332-27.354 11.332s-20.050-4.024-27.354-11.329c-7.308-7.308-11.332-17.022-11.332-27.354s4.024-20.047 11.329-27.354c5.775-5.775 13.070-9.462 20.972-10.769v-145.753l-86.282 86.282v183.433h183.433l243.695-243.695-183.433-183.433-144.688 144.688v158.467z" />
<glyph unicode="&#xe902;" glyph-name="03" d="M512 692.275c-136.124 0-246.866-110.742-246.866-246.866 0-136.12 110.742-246.866 246.866-246.866s246.866 110.742 246.866 246.866c0 136.12-110.742 246.866-246.866 246.866zM512 212.197c-128.594 0-233.213 104.619-233.213 233.213s104.619 233.213 233.213 233.213c128.594 0 233.213-104.619 233.213-233.213s-104.619-233.213-233.213-233.213zM410.624 393.967c10.165 0 18.227 3.127 24.194 9.383s8.95 14.848 8.95 25.774c0 9.779-2.72 17.517-8.161 23.224-5.441 5.704-12.882 8.557-22.323 8.557-11.407 0-19.746-4.123-25.020-12.367h-0.864c0.577 15.049 3.837 26.088 9.779 33.109s14.548 10.534 25.812 10.534c4.745 0 8.963-0.601 12.653-1.799v10.281c-3.116 0.908-7.38 1.365-12.797 1.365-15.722 0-27.597-5.117-35.625-15.35s-12.042-25.679-12.042-46.339c0-14.572 3.188-25.945 9.564-34.116 6.369-8.172 14.998-12.257 25.88-12.257zM390.601 441.494c2.133 3.116 4.997 5.56 8.591 7.332s7.55 2.659 11.865 2.659c6.95 0 12.175-1.99 15.674-5.967 3.499-3.98 5.25-9.445 5.25-16.394 0-8.1-1.881-14.298-5.646-18.586-3.765-4.291-9.049-6.434-15.855-6.434-4.506 0-8.52 1.246-12.042 3.738s-6.243 5.871-8.161 10.138c-1.918 4.267-2.877 8.868-2.877 13.804 0 3.359 1.068 6.595 3.202 9.711zM527.244 406.48h-54.067v0.573l23.006 22.504c10.257 9.97 17.254 18.214 20.995 24.733 3.738 6.516 5.608 13.111 5.608 19.773 0 8.53-2.806 15.326-8.414 20.384-5.608 5.055-13.346 7.584-23.224 7.584-11.407 0-21.955-4.028-31.635-12.080l6.328-8.124c4.792 3.785 9.141 6.4 13.049 7.837s8.042 2.157 12.404 2.157c6.038 0 10.759-1.642 14.165-4.925 3.403-3.284 5.103-7.728 5.103-13.336 0-3.98-0.672-7.694-2.014-11.145s-3.355-7.001-6.042-10.639c-2.686-3.642-8.243-9.731-16.681-18.261l-27.682-27.825v-10.281h69.093v11.069zM611.328 451.632c-3.57-5.513-5.356-13.708-5.356-24.59 0-10.639 1.833-18.814 5.499-24.518s8.905-8.557 15.712-8.557c7.093 0 12.476 2.792 16.142 8.376s5.499 13.814 5.499 24.695c0 10.639-1.905 18.777-5.717 24.409-3.809 5.632-9.12 8.448-15.927 8.448-6.997 0.003-12.281-2.755-15.852-8.264zM618.482 445.269c1.772 3.956 4.673 5.932 8.701 5.932s7.001-1.976 8.916-5.932 2.877-10.028 2.877-18.227c0-8.294-0.959-14.442-2.877-18.442-1.915-4.004-4.888-6.004-8.916-6.004s-6.929 2.024-8.701 6.076c-1.772 4.048-2.659 10.175-2.659 18.371-0.003 8.195 0.887 14.271 2.659 18.227zM561.394 395.407h10.568l58.31 105.114h-10.568zM563.838 502.033c-7.001 0-12.285-2.758-15.855-8.267-3.57-5.513-5.356-13.708-5.356-24.59 0-10.691 1.86-18.886 5.574-24.59s8.926-8.557 15.636-8.557c7.093 0 12.476 2.792 16.142 8.376s5.499 13.841 5.499 24.771c0 10.496-1.871 18.596-5.608 24.303-3.738 5.7-9.083 8.554-16.032 8.554zM563.838 444.73c-3.98 0-6.854 2.038-8.629 6.11-1.772 4.072-2.659 10.185-2.659 18.333s0.887 14.237 2.659 18.261 4.649 6.038 8.629 6.038c7.861 0 11.793-8.1 11.793-24.303 0-16.292-3.932-24.439-11.793-24.439zM512 660.268v-13.653c110.947 0 201.206-90.262 201.206-201.206s-90.259-201.209-201.206-201.209c-58.3 0-110.862 24.948-147.644 64.7l-10.018-9.264c39.277-42.452 95.406-69.089 157.665-69.089 118.473 0 214.859 96.386 214.859 214.859s-96.389 214.863-214.863 214.863z" />
<glyph unicode="&#xe903;" glyph-name="04" d="M167.277 400.473h208.493v208.493h-208.493v-208.493zM180.931 595.313h181.187v-181.187h-181.187v181.187zM407.429 400.473h208.493v208.493h-208.493v-208.493zM421.082 595.313h181.187v-181.187h-181.187v181.187zM647.588 609.546v-208.493h208.493v208.493h-208.493zM842.428 414.706h-181.187v181.187h181.187v-181.187zM167.021 367.217h207.643v-13.653h-207.643v13.653zM167.021 329.103h207.643v-13.653h-207.643v13.653zM167.025 290.987h158.952v-13.653h-158.952v13.653zM408.177 367.217h207.643v-13.653h-207.643v13.653zM408.177 329.103h207.643v-13.653h-207.643v13.653zM408.177 290.987h158.952v-13.653h-158.952v13.653zM648.011 367.217h207.643v-13.653h-207.643v13.653zM648.011 329.103h207.643v-13.653h-207.643v13.653zM648.011 290.987h158.952v-13.653h-158.952v13.653z" />
<glyph unicode="&#xe904;" glyph-name="05" d="M270.824 685.763v-482.352h482.352v482.352h-482.352zM739.523 217.064h-455.045v455.045h455.045v-455.045zM474.621 407.883v-17.063h9.875v17.753c9.332 1.174 16.602 4.017 21.808 8.533s7.803 10.24 7.803 17.179c0 4.489-0.942 8.301-2.83 11.438s-4.82 5.919-8.8 8.342c-3.977 2.42-9.974 4.908-17.981 7.462v33.208c7.854-0.563 15.582-2.348 23.183-5.356l3.98 10.025c-8.724 3.519-17.78 5.407-27.163 5.663v13.773h-9.875v-13.926c-8.516-0.918-15.367-3.519-20.545-7.806s-7.765-9.769-7.765-16.449c0-6.939 2.103-12.602 6.315-16.988 4.205-4.386 11.54-8.24 21.996-11.554v-33.669c-4.54 0-9.578 0.601-15.111 1.799-5.536 1.198-10.421 2.741-14.653 4.628v-11.936c3.417-1.58 7.803-2.819 13.158-3.71 5.359-0.901 10.892-1.345 16.606-1.345zM484.492 448.973c6.526-2.246 10.926-4.502 13.196-6.772 2.27-2.273 3.407-5.243 3.407-8.916 0-7.857-5.536-12.547-16.602-14.080v29.768zM462.684 471.467c-2.294 2.348-3.444 5.458-3.444 9.335 0 3.519 1.304 6.468 3.905 8.837 2.604 2.372 6.427 3.966 11.476 4.782v-29.611c-5.659 2.092-9.639 4.311-11.936 6.656zM563.763 495.114c1.328 1.171 2.526 2.294 3.598 3.366-0.41-5.919-0.611-12.192-0.611-18.825v-79.732h12.394v111.869h-10.711l-29.614-22.88 6.735-8.724c10.813 8.776 16.882 13.749 18.21 14.927z" />
<glyph unicode="&#xe905;" glyph-name="06" d="M753.176 677.84v11.339h-482.352v-482.352h7.888l0.034-0.717 0.792 0.717h463.043l0.573-0.717v0.717h10.022v470.852l0.15 0.119-0.15 0.041zM510.72 384.734l-49.213 49.213c-0.29 0.283-0.58 0.57-0.898 0.894l-0.597 0.621c-12.698 13.189-19.692 30.522-19.692 48.8 0 38.82 31.58 70.4 70.4 70.4s70.4-31.58 70.4-70.4c0-18.278-6.994-35.611-19.692-48.8l-0.488-0.509c-0.331-0.341-0.672-0.679-1.068-1.065l-49.152-49.155zM528.719 566.361c15.063 33.539 23.999 70.4 25.33 109.165h175.821l-147.446-147.446c-11.779 19.197-31.048 33.314-53.705 38.281zM540.382 675.523c-1.376-38.216-10.486-74.482-25.805-107.302-1.28 0.058-2.563 0.099-3.857 0.099-46.346 0-84.053-37.707-84.053-84.053 0-7.192 0.918-14.261 2.676-21.071-41.011-30.935-90.757-50.842-144.865-55.194v267.52h255.904zM284.477 394.332c55.665 4.26 106.991 24.18 149.617 55.357 2.942-6.509 6.728-12.653 11.298-18.289l-0.358-0.307 5.598-5.574c0.44-0.451 0.887-0.901 1.28-1.28l13.336-13.336-180.77-180.77v164.198zM294.12 220.477l180.777 180.774 35.823-35.826 37.581 37.581 182.525-182.531h-436.705zM739.523 231.086l-181.572 181.572 11.517 11.517c0.451 0.44 0.898 0.891 1.273 1.273l5.652 5.652-0.348 0.297c12.124 14.937 18.726 33.454 18.726 52.866 0 10.923-2.116 21.35-5.922 30.935l150.675 150.671v-434.784zM510.72 516.55c-17.801 0-32.283-14.483-32.283-32.283s14.483-32.283 32.283-32.283 32.283 14.483 32.283 32.283-14.483 32.283-32.283 32.283zM510.72 465.637c-10.274 0-18.63 8.359-18.63 18.63s8.359 18.63 18.63 18.63 18.63-8.359 18.63-18.63-8.356-18.63-18.63-18.63z" />
<glyph unicode="&#xe906;" glyph-name="07" d="M428.568 345.467v-85.449h165.728v85.449l-82.865 47.974-82.862-47.974zM580.642 273.674h-138.421v64.703l69.209 38.383 69.212-38.383v-64.703zM654.933 219.307v155.884l-117.842 72.81 117.842 72.81v155.884h14.223v13.571h-315.167v-13.571h14.223v-155.884l117.842-72.81-117.842-72.81v-155.884h-13.653v-13.571h315.163v13.571h-14.79zM381.867 528.425v148.186h259.413v-148.186l-129.707-80.142-129.707 80.142zM641.28 219.389h-259.413v148.186l129.707 80.142 129.707-80.142v-148.186z" />
<glyph unicode="&#xe907;" glyph-name="08" d="M171.349 458.267h208.493v208.493h-208.493v-208.493zM185.003 653.107h181.187v-181.187h-181.187v181.187zM411.505 458.267h208.497v208.493h-208.497v-208.493zM425.158 653.107h181.19v-181.187h-181.19v181.187zM651.66 458.848h208.493v208.493h-208.493v-208.493zM665.313 653.687h181.187v-181.187h-181.187v181.187zM171.097 425.011h207.643v-13.653h-207.643v13.653zM171.097 386.898h207.643v-13.653h-207.643v13.653zM171.097 348.781h158.952v-13.653h-158.952v13.653zM412.252 425.011h207.643v-13.653h-207.643v13.653zM412.252 386.898h207.643v-13.653h-207.643v13.653zM412.252 348.781h158.952v-13.653h-158.952v13.653zM652.087 425.011h207.643v-13.653h-207.643v13.653zM652.087 386.898h207.643v-13.653h-207.643v13.653zM652.083 348.781h158.952v-13.653h-158.952v13.653zM967.062 563.098l-48.271 48.268-9.656-9.656 38.615-38.615-38.615-38.615 9.656-9.653 48.268 48.268zM112.036 611.366l-48.271-48.271 48.271-48.268 9.656 9.653-38.615 38.615 38.615 38.615zM482.263 250.624c0-8.361-6.778-15.138-15.138-15.138s-15.138 6.778-15.138 15.138c0 8.361 6.778 15.138 15.138 15.138s15.138-6.778 15.138-15.138zM530.551 250.624c0-8.361-6.778-15.138-15.138-15.138s-15.138 6.778-15.138 15.138c0 8.361 6.778 15.138 15.138 15.138s15.138-6.778 15.138-15.138zM578.84 250.624c0-8.361-6.778-15.138-15.138-15.138s-15.138 6.778-15.138 15.138c0 8.361 6.778 15.138 15.138 15.138s15.138-6.778 15.138-15.138z" />
<glyph unicode="&#xe908;" glyph-name="09" d="M167.598 334.548h688.804v331.629h-688.804v-331.629zM181.251 652.524h661.497v-304.326h-661.497v304.326zM408.177 524.824h207.643v-13.653h-207.643v13.653zM432.524 489.554h158.949v-13.653h-158.949v13.653zM963.649 500.364l-48.271 48.268-9.656-9.653 38.615-38.615-38.615-38.615 9.656-9.656 48.268 48.271zM108.623 548.632l-48.271-48.271 48.271-48.268 9.656 9.656-38.615 38.615 38.615 38.615zM478.85 244.961c0-8.361-6.778-15.138-15.138-15.138s-15.138 6.778-15.138 15.138c0 8.361 6.778 15.138 15.138 15.138s15.138-6.778 15.138-15.138zM527.138 244.961c0-8.361-6.778-15.138-15.138-15.138s-15.138 6.778-15.138 15.138c0 8.361 6.778 15.138 15.138 15.138s15.138-6.778 15.138-15.138zM575.427 244.961c0-8.361-6.778-15.138-15.138-15.138s-15.138 6.778-15.138 15.138c0 8.361 6.778 15.138 15.138 15.138s15.138-6.778 15.138-15.138z" />
<glyph unicode="&#xe909;" glyph-name="10" d="M606.198 625.852v63.283h-191.43v-63.28h-96.71v-418.987h384.853v418.983h-96.713zM522.851 616.871l69.693 46.131v-93.204l-69.693 46.131 0.71 0.471-0.71 0.471zM586.656 675.482l-76.175-50.422-76.175 50.422h152.351zM428.421 663.006l69.693-46.131-0.71-0.471 0.71-0.471-69.693-46.131v93.204zM689.258 220.518h-357.547v391.68h83.057v-67.809l88.89 58.836v-90.866h13.653v90.866l88.89-58.836v67.809h83.060v-391.68zM499.746 462.698c-2.591 2.051-6.342 1.621-8.393-0.969-10.366-13.070-13.978-42.039-15.234-60.416-4.543 10.247-8.032 24.784-9.885 32.515-2.789 11.633-3.731 15.555-9.165 15.555-4.939 0-5.523-0.956-20.801-34.116-1.83-3.97-3.922-8.509-5.888-12.701-1.249 9.155-2.632 20.75-3.703 29.778-0.98 8.24-1.898 15.964-2.652 21.596-0.44 3.27-3.42 5.574-6.714 5.127-3.27-0.437-5.567-3.444-5.127-6.714 0.751-5.588 1.659-13.247 2.632-21.419 1.318-11.069 2.676-22.518 3.946-31.553 2.086-14.838 2.867-20.388 9.086-20.388 4.861 0 5.13 0.587 19.272 31.273 2.567 5.577 5.612 12.175 8.24 17.698 5.287-21.637 11.609-42.561 23.429-48.357 0.829-0.41 1.734-0.611 2.632-0.611 1.099 0 2.198 0.304 3.161 0.905 1.751 1.092 2.813 3.007 2.813 5.069 0 21.821 4.13 57.76 13.315 69.338 2.055 2.58 1.621 6.342-0.963 8.39zM530.903 449.382c-13.261 0-26.532-14.961-30.218-34.062-2.294-11.899-0.352-23.013 5.199-29.734 3.505-4.25 8.346-6.588 13.619-6.588 13.261 0 26.532 14.961 30.218 34.062 2.294 11.899 0.352 23.013-5.199 29.734-3.505 4.246-8.346 6.588-13.619 6.588zM537.989 415.317c-2.768-14.363-11.964-24.378-18.483-24.378-1.717 0-3.157 0.734-4.407 2.249-3.205 3.884-4.26 11.68-2.679 19.869 2.768 14.363 11.964 24.378 18.483 24.378 1.717 0 3.157-0.734 4.407-2.249 3.209-3.884 4.26-11.68 2.679-19.869zM589.343 449.382c-13.261 0-26.532-14.961-30.218-34.062-2.294-11.899-0.352-23.013 5.199-29.734 3.505-4.25 8.346-6.588 13.619-6.588 13.261 0 26.532 14.961 30.218 34.062 2.294 11.899 0.352 23.013-5.199 29.734-3.505 4.246-8.346 6.588-13.619 6.588zM596.429 415.317c-2.768-14.363-11.964-24.378-18.483-24.378-1.717 0-3.157 0.734-4.407 2.249-3.205 3.884-4.26 11.68-2.679 19.869 2.768 14.363 11.964 24.378 18.483 24.378 1.717 0 3.157-0.734 4.407-2.249 3.209-3.884 4.26-11.68 2.679-19.869z" />
<glyph unicode="&#xe90a;" glyph-name="11" d="M270.824 689.176v-482.352h482.352v482.352h-482.352zM739.523 220.477h-455.045v455.045h455.045v-455.045zM432.36 415.59h207.643v-13.653h-207.643v13.653zM432.36 377.474h158.952v-13.653h-158.952v13.653zM432.36 529.937h207.643v-13.653h-207.643v13.653zM432.36 491.82h207.643v-13.653h-207.643v13.653zM640.003 453.707h-207.643v-13.653h207.643zM414.273 525.353c0-8.361-6.778-15.138-15.138-15.138s-15.138 6.778-15.138 15.138c0 8.361 6.778 15.138 15.138 15.138s15.138-6.778 15.138-15.138zM414.273 486.676c0-8.361-6.778-15.138-15.138-15.138s-15.138 6.778-15.138 15.138c0 8.361 6.778 15.138 15.138 15.138s15.138-6.778 15.138-15.138zM414.273 448c0-8.361-6.778-15.138-15.138-15.138s-15.138 6.778-15.138 15.138c0 8.361 6.778 15.138 15.138 15.138s15.138-6.778 15.138-15.138zM414.273 409.324c0-8.361-6.778-15.138-15.138-15.138s-15.138 6.778-15.138 15.138c0 8.361 6.778 15.138 15.138 15.138s15.138-6.778 15.138-15.138zM414.273 370.647c0-8.361-6.778-15.138-15.138-15.138s-15.138 6.778-15.138 15.138c0 8.361 6.778 15.138 15.138 15.138s15.138-6.778 15.138-15.138z" />
<glyph unicode="&#xe90b;" glyph-name="12" d="M745.667 424.315l-8.994 12.315c-5.7 7.803-5.792 18.353-0.236 26.242l8.8 12.418c5.99 8.468 8.055 19.128 5.666 29.245-2.383 10.086-8.977 18.664-18.097 23.538l-13.38 7.13c-8.547 4.57-13.186 14.063-11.544 23.627l2.543 14.964c1.72 10.209-1.031 20.692-7.543 28.751-6.519 8.069-16.196 12.957-26.542 13.418l-15.196 0.686c-9.646 0.372-17.961 6.888-20.685 16.186l-4.202 14.568c-4.444 15.38-18.726 26.126-34.731 26.126-4.936 0-9.755-1.004-14.292-2.973l-14.008-5.973c-8.69-3.761-19.337-1.417-25.638 5.622l-10.182 11.356c-6.888 7.629-16.725 12.001-26.993 12.001-10.462 0-20.384-4.519-27.208-12.384l-9.957-11.424c-6.284-7.168-16.821-9.721-25.61-6.103l-14.060 5.758c-4.424 1.83-9.069 2.758-13.807 2.758-16.213 0-30.553-10.94-34.877-26.617l-4.007-14.657c-2.56-9.339-10.749-15.968-20.401-16.497l-15.135-0.877c-10.359-0.577-19.978-5.591-26.392-13.756s-9.008-18.702-7.117-28.894l2.737-14.944c1.724-9.52-2.806-19.087-11.244-23.791l-13.319-7.345c-9.052-5.041-15.524-13.732-17.756-23.842-2.236-10.127-0.020-20.75 6.069-29.136l9.011-12.435c5.7-7.803 5.792-18.353 0.236-26.242l-8.8-12.418c-5.99-8.468-8.055-19.128-5.666-29.242 2.383-10.086 8.974-18.668 18.097-23.538l13.38-7.134c8.547-4.574 13.189-14.063 11.544-23.627l-2.543-14.967c-1.72-10.206 1.031-20.688 7.543-28.747 6.519-8.066 16.196-12.96 26.542-13.421l15.196-0.683c9.649-0.375 17.964-6.892 20.688-16.186l4.202-14.572c4.444-15.38 18.726-26.122 34.731-26.122 4.936 0 9.755 1.007 14.292 2.973l14.008 5.973c8.697 3.768 19.34 1.41 25.638-5.618l10.182-11.36c6.888-7.625 16.725-12.001 26.993-12.001 10.462 0 20.384 4.516 27.211 12.384l9.957 11.424c6.281 7.168 16.811 9.728 25.61 6.103l14.060-5.762c4.424-1.826 9.069-2.755 13.804-2.755 0 0 0.003 0 0.003 0 16.213 0 30.553 10.94 34.877 26.621l4.007 14.657c2.557 9.322 10.766 15.991 20.401 16.592l15.135 0.881c10.356 0.577 19.978 5.588 26.392 13.752 6.417 8.165 9.011 18.702 7.12 28.897l-2.737 14.944c-1.724 9.52 2.806 19.087 11.244 23.794l13.319 7.342c9.052 5.045 15.524 13.732 17.756 23.846 2.222 10.117 0.007 20.743-6.096 29.15zM738.417 398.104c-1.393-6.304-5.427-11.721-11.042-14.851l-13.322-7.342c-13.565-7.567-20.821-22.903-18.053-38.182l2.741-14.971c1.178-6.352-0.437-12.909-4.427-17.992-3.99-5.076-9.974-8.195-16.428-8.554l-15.183-0.884c-15.486-0.969-28.648-11.663-32.748-26.617l-4.004-14.647c-2.693-9.766-11.622-16.582-21.712-16.582-2.939 0-5.83 0.58-8.608 1.727l-14.066 5.765c-4.369 1.795-8.974 2.71-13.694 2.71-10.465 0-20.446-4.536-27.385-12.455l-9.981-11.448c-4.239-4.888-10.404-7.69-16.906-7.69-6.41 0-12.554 2.734-16.841 7.479l-10.165 11.339c-6.833 7.625-16.64 12.005-26.904 12.005-4.953 0-9.769-0.997-14.288-2.949l-14.015-5.977c-2.847-1.236-5.84-1.864-8.895-1.864-9.96 0-18.848 6.687-21.617 16.261l-4.209 14.592c-4.379 14.957-17.749 25.412-33.222 26.013l-15.155 0.683c-6.444 0.287-12.472 3.335-16.538 8.363-4.055 5.021-5.769 11.544-4.7 17.886l2.54 14.944c2.639 15.357-4.82 30.614-18.572 37.97l-13.384 7.134c-5.659 3.028-9.755 8.359-11.237 14.636-1.492 6.304-0.205 12.947 3.523 18.214l8.806 12.428c8.946 12.691 8.8 29.641-0.345 42.155l-8.998 12.418c-3.802 5.236-5.185 11.861-3.789 18.176 1.389 6.301 5.424 11.718 11.042 14.848l13.322 7.349c13.565 7.561 20.821 22.9 18.053 38.178l-2.741 14.971c-1.178 6.349 0.437 12.906 4.427 17.985s9.974 8.199 16.432 8.557l15.128 0.877c15.503 0.847 28.682 11.503 32.802 26.522l4.004 14.65c2.693 9.762 11.619 16.579 21.709 16.579 2.939 0 5.83-0.577 8.612-1.727l14.066-5.762c4.369-1.799 8.974-2.71 13.694-2.71 10.465 0 20.442 4.536 27.382 12.455l9.981 11.448c4.243 4.888 10.404 7.69 16.906 7.69 6.41 0 12.554-2.734 16.841-7.479l10.165-11.336c6.833-7.629 16.643-12.008 26.907-12.008 4.953 0 9.769 0.997 14.288 2.949l14.015 5.977c2.847 1.236 5.84 1.86 8.895 1.86 9.96 0 18.848-6.687 21.617-16.261l4.209-14.589c4.379-14.961 17.749-25.416 33.222-26.016l15.155-0.686c6.444-0.287 12.472-3.335 16.534-8.363 4.058-5.021 5.769-11.544 4.7-17.889l-2.54-14.94c-2.639-15.36 4.82-30.618 18.572-37.973l13.384-7.13c5.659-3.024 9.755-8.359 11.237-14.633 1.492-6.308 0.205-12.947-3.523-18.214l-8.806-12.428c-8.946-12.691-8.8-29.641 0.358-42.172l8.984-12.302c3.802-5.233 5.185-11.858 3.789-18.169zM552.858 463.456c-9.093 0-15.957-3.581-20.593-10.738-4.635-7.161-6.956-17.807-6.956-31.939 0-13.821 2.383-24.439 7.144-31.846 4.762-7.41 11.568-11.114 20.405-11.114 9.213 0 16.203 3.625 20.968 10.882 4.762 7.253 7.144 17.944 7.144 32.079 0 13.821-2.475 24.388-7.424 31.706-4.949 7.311-11.848 10.97-20.688 10.97zM564.439 396.82c-2.488-5.199-6.352-7.799-11.581-7.799s-8.998 2.628-11.302 7.892c-2.301 5.26-3.454 13.216-3.454 23.863s1.154 18.538 3.454 23.675c2.301 5.137 6.069 7.704 11.302 7.704s9.093-2.567 11.581-7.704c2.488-5.137 3.734-13.029 3.734-23.675 0.003-10.772-1.246-18.756-3.734-23.955zM491.547 443.331c4.762 7.253 7.144 17.978 7.144 32.174 0 13.636-2.427 24.156-7.284 31.567-4.857 7.407-11.8 11.114-20.825 11.114-9.093 0-15.957-3.581-20.593-10.738-4.635-7.161-6.956-17.807-6.956-31.939 0-13.885 2.413-24.532 7.236-31.939 4.823-7.41 11.595-11.114 20.313-11.114 9.213-0.007 16.203 3.622 20.965 10.875zM459.373 451.69c-2.301 5.291-3.454 13.23-3.454 23.815s1.154 18.49 3.454 23.723c2.301 5.229 6.038 7.844 11.206 7.844 10.213 0 15.316-10.523 15.316-31.567 0-21.169-5.103-31.754-15.316-31.754-5.168 0-8.902 2.645-11.206 7.939zM543.147 516.222l-75.742-136.537h13.728l75.742 136.537z" />
<glyph unicode="&#xe90c;" glyph-name="13" d="M367.913 282.146c-8.206 0-15.206-2.901-21.009-8.707-5.803-5.803-8.704-12.807-8.704-21.009 0-8.206 2.901-15.206 8.704-21.009s12.803-8.704 21.009-8.704c8.202 0 15.206 2.905 21.009 8.704 5.803 5.806 8.707 12.803 8.707 21.009 0 8.202-2.901 15.206-8.707 21.009-5.806 5.806-12.81 8.707-21.009 8.707zM378.358 241.985c-2.942-2.939-6.424-4.41-10.445-4.41-4.024 0-7.509 1.471-10.448 4.41-2.942 2.939-4.41 6.424-4.41 10.448 0 4.021 1.471 7.503 4.41 10.445 2.939 2.939 6.42 4.413 10.448 4.413 4.021 0 7.506-1.475 10.445-4.413 2.939-2.942 4.41-6.424 4.41-10.445 0-4.028-1.471-7.509-4.41-10.448zM494.199 282.146c-8.206 0-15.206-2.901-21.009-8.707-5.803-5.803-8.704-12.807-8.704-21.009 0-8.206 2.901-15.206 8.704-21.009s12.803-8.704 21.009-8.704c8.202 0 15.206 2.905 21.009 8.704 5.803 5.806 8.704 12.803 8.704 21.009 0 8.202-2.901 15.206-8.704 21.009-5.806 5.806-12.81 8.707-21.009 8.707zM504.644 241.985c-2.942-2.939-6.424-4.41-10.445-4.41-4.024 0-7.509 1.471-10.448 4.41-2.942 2.939-4.41 6.424-4.41 10.448 0 4.021 1.468 7.503 4.41 10.445 2.939 2.939 6.42 4.413 10.448 4.413 4.024 0 7.503-1.475 10.445-4.413 2.939-2.942 4.41-6.424 4.41-10.445 0-4.028-1.471-7.509-4.41-10.448zM577.942 673.283c-85.787 0-155.576-69.789-155.576-155.576 0-35.485 11.967-68.215 32.044-94.42h-111.572l-4.642 30.877c-0.314 1.7-1.161 3.171-2.553 4.41-1.393 1.236-3.017 1.857-4.874 1.857h-40.284v-14.858h33.782l21.357-142.305c0.307-1.703 1.161-3.174 2.553-4.41 1.393-1.242 3.017-1.857 4.874-1.857h148.572c1.857 0 3.482 0.618 4.874 1.857 1.393 1.236 2.239 2.785 2.553 4.642l9.397 70.479c18.34-7.619 38.427-11.848 59.491-11.848 85.784 0 155.573 69.789 155.573 155.576s-69.786 155.576-155.569 155.576zM495.128 311.859h-135.574l-14.626 96.57h122.409c10.82-10.953 23.245-20.316 36.898-27.692l-9.107-68.878zM577.942 375.788c-78.257 0-141.923 63.665-141.923 141.923s63.665 141.923 141.923 141.923c78.254 0 141.92-63.665 141.92-141.923s-63.665-141.923-141.92-141.923zM584.765 578.58h-13.653v-54.047h-54.043v-13.653h54.043v-54.043h13.653v54.043h54.047v13.653h-54.047z" />
<glyph unicode="&#xe90d;" glyph-name="14" d="M754.34 517.178v17.043l-0.177-0.031v0.297l-0.034-0.020v1.055h-2.864l-10.578 6.458-231.465 145.869-12.551-8.117 0.498-0.324-223.478-143.886h-1.915v-0.826l-0.034 0.020v-325.472l0.212 0.137v-1.225h482.352v13.653h-0.143v295.482l0.177-0.113zM510.273 671.628l215.084-136.11h-424.909l209.824 136.11zM734.126 521.865l-225.085-141.79-217.586 141.79h442.672zM285.396 509.519l211.596-137.885-211.596-137.26v275.145zM291.113 221.809l218.979 142.053 224.471-142.053h-443.45zM740.509 234.209l-218.208 138.083 218.208 137.458v-275.541z" />
<glyph unicode="&#xe90e;" glyph-name="15" d="M407.419 474.918h207.643v-13.653h-207.643v13.653zM431.766 439.644h158.949v-13.653h-158.949v13.653zM886.661 453.335c0 37.356-51.070 70.195-132.584 91.942v146.353h-482.352v-316.846c-75.67 20.593-119.76 49.876-119.76 78.066 0 28.095 43.749 57.279 118.931 77.865v14.080c-81.514-21.746-132.584-54.586-132.584-91.942 0-37.478 51.432-70.397 133.414-92.136v-151.436h482.352v152.112c81.521 21.74 132.584 54.583 132.584 91.942zM740.424 222.932h-455.045v134.321c25.658-6.171 53.972-11.302 84.401-15.196v13.701c-30.99 4.021-59.228 9.298-84.401 15.497v306.722h455.045v-306.057c-55.313-13.705-125.723-22.897-207.019-24.228l20.989 20.989-9.653 9.656-37.007-37.007 0.065-0.065-0.065-0.065 37.007-37.007 9.653 9.653-20.21 20.214c77.937 1.335 148.815 9.974 206.24 23.863v-134.991zM754.077 375.48v155.72c75.179-20.586 118.931-49.77 118.931-77.865s-43.756-57.272-118.931-77.855z" />
<glyph unicode="&#xe90f;" glyph-name="16" d="M886.415 442.713c0 0.017 0.003 0.034 0.003 0.048 0 0.092-0.014 0.177-0.017 0.27-0.010 1.273-0.092 2.536-0.222 3.799-0.055 0.563-0.137 1.126-0.215 1.686-0.116 0.792-0.253 1.58-0.413 2.369-0.133 0.655-0.259 1.311-0.42 1.963-0.16 0.635-0.365 1.266-0.553 1.898-0.43 1.444-0.939 2.877-1.522 4.301-0.143 0.345-0.273 0.689-0.423 1.034-0.416 0.959-0.877 1.911-1.362 2.864-0.092 0.181-0.195 0.362-0.29 0.546-21.811 41.428-108.114 74.967-226.028 90.068v-13.701c37.079-4.809 70.25-11.411 98.884-19.251v-0.085c63.311-17.336 104.325-40.769 115.698-64.512 0.065-0.14 0.126-0.28 0.191-0.416 0.751-1.621 1.372-3.243 1.847-4.864 0.014-0.051 0.038-0.102 0.051-0.154 0.16-0.556 0.273-1.113 0.399-1.673 0.126-0.563 0.246-1.126 0.335-1.686 0.075-0.461 0.147-0.922 0.198-1.382 0.106-0.939 0.181-1.877 0.188-2.816 0-0.102 0.014-0.205 0.014-0.304-0.051-28.078-43.79-57.242-118.927-77.814v-0.096c-57.18-15.657-132.529-26.341-220.669-27.785l20.989 20.989-9.653 9.656-37.007-37.007 0.065-0.065-0.065-0.065 37.007-37.007 9.653 9.653-20.21 20.214c188.614 3.232 335.879 49.224 351.143 108.988 0 0.007 0.003 0.014 0.007 0.020 0.276 1.085 0.512 2.171 0.7 3.267 0.014 0.079 0.031 0.157 0.044 0.239 0.177 1.062 0.317 2.13 0.41 3.202 0.007 0.075 0.017 0.15 0.024 0.229 0.092 1.109 0.147 2.222 0.147 3.342 0.003 0.007 0 0.024 0 0.041zM433.217 426.093h158.952v-13.653h-158.952v13.653zM592.166 447.71h24.347v13.653h-207.643v-13.653h24.347zM592.166 482.98h24.347v13.653h-207.643v-13.653h24.347zM433.217 567.214v-0.038h-24.347v-13.653h207.643v13.653h-24.347v0.038zM592.166 518.253h24.347v13.653h-207.643v-13.653h24.347zM408.87 602.484h207.643v-13.653h-207.643v13.653zM155.235 476.122c-0.922-0.949-1.809-1.905-2.659-2.864-0.123-0.137-0.242-0.276-0.365-0.413-0.782-0.894-1.536-1.795-2.256-2.7-0.123-0.154-0.249-0.307-0.369-0.464-0.73-0.932-1.427-1.867-2.089-2.809-0.075-0.109-0.157-0.215-0.236-0.324-2.202-3.164-4.024-6.38-5.444-9.639-0.102-0.232-0.191-0.468-0.287-0.7-0.341-0.819-0.666-1.642-0.959-2.468-0.116-0.321-0.218-0.645-0.324-0.969-0.246-0.748-0.471-1.495-0.676-2.249-0.096-0.355-0.191-0.713-0.28-1.072-0.181-0.734-0.335-1.471-0.474-2.208-0.068-0.362-0.143-0.72-0.201-1.082-0.126-0.778-0.218-1.56-0.3-2.342-0.034-0.314-0.079-0.628-0.106-0.945-0.089-1.092-0.14-2.185-0.14-3.28 0-0.003 0-0.003 0-0.007s0-0.007 0-0.010c0-0.020 0.003-0.038 0.003-0.058 0.003-1.393 0.099-2.778 0.242-4.161 0.044-0.437 0.109-0.874 0.167-1.311 0.14-1.021 0.317-2.034 0.532-3.048 0.092-0.427 0.171-0.857 0.276-1.283 0.328-1.345 0.71-2.683 1.171-4.011 0.113-0.324 0.256-0.649 0.379-0.973 0.386-1.038 0.806-2.068 1.273-3.096 0.229-0.505 0.471-1.007 0.717-1.509 0.444-0.901 0.922-1.799 1.427-2.69 0.263-0.464 0.505-0.928 0.785-1.389 0.748-1.239 1.55-2.475 2.41-3.697 0.341-0.485 0.717-0.963 1.075-1.444 0.608-0.816 1.232-1.628 1.888-2.437 0.454-0.56 0.918-1.116 1.396-1.673 0.672-0.778 1.376-1.553 2.092-2.324 0.468-0.502 0.915-1.010 1.403-1.509 1.106-1.133 2.266-2.256 3.471-3.372 0.618-0.573 1.27-1.14 1.915-1.71 0.741-0.655 1.492-1.307 2.266-1.952 0.713-0.597 1.434-1.195 2.174-1.785 0.819-0.652 1.669-1.3 2.522-1.946 1.225-0.928 2.485-1.853 3.782-2.772 0.908-0.642 1.812-1.283 2.755-1.922 0.918-0.618 1.864-1.232 2.813-1.843 0.812-0.526 1.638-1.048 2.475-1.57 1-0.625 2.004-1.246 3.038-1.86 0.857-0.509 1.744-1.014 2.621-1.519 1.871-1.075 3.792-2.144 5.765-3.198 0.847-0.454 1.69-0.908 2.553-1.359 1.212-0.631 2.451-1.253 3.7-1.874 0.853-0.427 1.72-0.847 2.591-1.27 1.297-0.628 2.591-1.256 3.925-1.874 0.597-0.276 1.219-0.55 1.823-0.823 2.683-1.222 5.437-2.427 8.26-3.615 0.857-0.358 1.71-0.72 2.577-1.079 1.492-0.611 3-1.219 4.526-1.819 0.874-0.345 1.765-0.686 2.649-1.027 5.236-2.017 10.673-3.973 16.316-5.871 0.935-0.314 1.867-0.628 2.813-0.939 1.717-0.567 3.447-1.126 5.199-1.679 0.922-0.29 1.857-0.577 2.789-0.864 3.475-1.075 7.011-2.127 10.615-3.157 0.693-0.198 1.376-0.399 2.072-0.597 1.847-0.519 3.721-1.027 5.598-1.536 0.584-0.157 1.15-0.321 1.737-0.474v0.010c29.348-7.83 62.601-14.237 98.884-18.883v13.701c-37.134 4.816-70.349 11.431-99.014 19.285-1.673 0.461-3.318 0.925-4.96 1.393-1.085 0.307-2.167 0.618-3.236 0.928-1.625 0.474-3.246 0.949-4.84 1.43-0.969 0.294-1.918 0.591-2.877 0.887-2.867 0.887-5.683 1.785-8.441 2.7-0.908 0.3-1.826 0.601-2.724 0.901-1.512 0.512-3 1.027-4.478 1.546-0.928 0.328-1.85 0.655-2.765 0.983-1.471 0.529-2.942 1.055-4.376 1.591-0.461 0.171-0.905 0.348-1.362 0.519-2.877 1.085-5.676 2.185-8.407 3.297-0.85 0.345-1.7 0.689-2.533 1.038-1.3 0.543-2.587 1.089-3.85 1.635-0.829 0.358-1.638 0.72-2.451 1.082-2.195 0.976-4.335 1.959-6.42 2.953-0.748 0.355-1.509 0.71-2.243 1.068-1.133 0.553-2.236 1.109-3.335 1.669-0.782 0.396-1.556 0.795-2.321 1.191-1.058 0.553-2.116 1.106-3.14 1.666-0.795 0.43-1.56 0.867-2.331 1.3-1.642 0.918-3.236 1.843-4.785 2.775-0.754 0.454-1.509 0.905-2.243 1.359-0.874 0.543-1.727 1.089-2.57 1.635-0.72 0.468-1.427 0.939-2.123 1.41-0.785 0.529-1.58 1.058-2.338 1.591-1.249 0.881-2.461 1.765-3.632 2.649-0.662 0.502-1.287 1.007-1.922 1.509-0.672 0.532-1.338 1.068-1.983 1.604-0.611 0.509-1.215 1.021-1.799 1.529-0.693 0.608-1.359 1.215-2.014 1.826-0.669 0.621-1.321 1.242-1.949 1.864-0.758 0.751-1.498 1.505-2.198 2.26-0.433 0.468-0.84 0.932-1.249 1.399-0.546 0.625-1.075 1.249-1.58 1.874-0.362 0.444-0.727 0.887-1.065 1.335-0.754 0.986-1.468 1.976-2.12 2.966-0.222 0.335-0.406 0.669-0.614 1.004-0.468 0.748-0.911 1.498-1.321 2.249-0.225 0.413-0.437 0.826-0.645 1.239-0.382 0.765-0.73 1.529-1.051 2.29-0.133 0.317-0.283 0.631-0.406 0.949-0.403 1.041-0.744 2.086-1.031 3.127-0.089 0.317-0.154 0.635-0.229 0.956-0.195 0.799-0.355 1.601-0.478 2.4-0.051 0.335-0.106 0.672-0.147 1.007-0.126 1.058-0.212 2.116-0.212 3.171 0 0.020-0.003 0.044-0.003 0.065 0 0.833 0.044 1.669 0.123 2.505 0.020 0.229 0.061 0.457 0.089 0.686 0.072 0.611 0.154 1.225 0.266 1.836 0.048 0.27 0.113 0.536 0.171 0.806 0.123 0.58 0.259 1.161 0.416 1.741 0.075 0.27 0.157 0.536 0.239 0.806 0.177 0.591 0.375 1.181 0.591 1.772 0.092 0.249 0.184 0.498 0.283 0.751 0.249 0.631 0.519 1.263 0.809 1.894 0.092 0.205 0.184 0.41 0.283 0.611 0.355 0.734 0.737 1.468 1.147 2.202 0.055 0.099 0.106 0.198 0.16 0.297 1.492 2.618 3.335 5.226 5.53 7.823 0.007 0.007 0.014 0.014 0.020 0.024 0.713 0.847 1.468 1.686 2.256 2.529 0.058 0.061 0.116 0.119 0.171 0.181 0.758 0.802 1.546 1.604 2.372 2.403 0.058 0.058 0.119 0.116 0.177 0.174 0.86 0.829 1.754 1.662 2.69 2.488 0.010 0.007 0.017 0.017 0.027 0.024 19.425 17.213 54.132 33.437 101.11 46.298v0.010c28.993 7.939 62.672 14.589 100.308 19.415v13.687c-103.038-13.042-182.207-40.117-215.572-74.271-0.051-0.055-0.099-0.109-0.15-0.16z" />
<glyph unicode="&#xe910;" glyph-name="17" d="M573.14 688.48h-302.046v-299.482h302.046v299.482zM559.486 402.647h-274.739v272.179h274.739v-272.179zM588.53 688.48v-299.482h164.376v299.482h-164.376zM739.256 402.647h-137.069v272.179h137.069v-272.179zM271.090 207.52h481.816v168.066h-481.816v-168.066zM284.744 361.936h454.509v-140.759h-454.509v140.759zM318.293 563.2h207.643v-13.653h-207.643v13.653zM342.641 527.927h158.952v-13.653h-158.952v13.653z" />
<glyph unicode="&#xe911;" glyph-name="18" d="M167.724 428.981h208.493v185.071h-208.493v-185.071zM181.378 600.399h181.187v-157.764h-181.187v157.764zM407.88 405.088h208.497v208.493h-208.497v-208.493zM421.533 599.927h181.19v-181.187h-181.19v181.187zM648.035 612.915v-108.261h208.493v108.261h-208.493zM842.875 518.308h-181.187v80.954h181.187v-80.954zM167.472 395.728h207.643v-13.653h-207.643v13.653zM167.472 357.612h207.643v-13.653h-207.643v13.653zM167.472 319.495h158.952v-13.653h-158.952v13.653zM408.627 371.835h207.643v-13.653h-207.643v13.653zM408.627 333.718h207.643v-13.653h-207.643v13.653zM408.627 295.601h158.952v-13.653h-158.952v13.653zM648.462 470.822h207.643v-13.653h-207.643v13.653zM648.462 432.705h207.643v-13.653h-207.643v13.653zM648.462 394.588h158.949v-13.653h-158.949v13.653z" />
<glyph unicode="&#xe912;" glyph-name="19" d="M719.913 429.906c-8.26 0-15.872-2.833-21.917-7.574-0.509 19.162-16.258 34.598-35.543 34.598-8.26 0-15.869-2.83-21.914-7.574-0.509 19.162-16.258 34.598-35.543 34.598-8.253 0-15.862-2.826-21.903-7.567v60.471h55.2v151.327h-375.467v-151.323h249.156v-213.35l-36.062 41.066c-6.752 7.683-16.493 12.090-26.726 12.090-8.632 0-16.961-3.14-23.453-8.841-14.725-12.937-16.186-35.447-3.249-50.176l98.26-111.879h234.718v188.587c-0.003 19.599-15.954 35.55-35.557 35.55zM276.48 550.513v124.017h348.16v-124.017h-41.547v33.28c0 19.603-15.951 35.553-35.553 35.553-19.606 0-35.557-15.951-35.557-35.553v-33.28h-235.503zM741.813 219.419h-214.883l-94.181 107.233c-7.97 9.076-7.069 22.944 2.004 30.911 3.997 3.512 9.127 5.448 14.438 5.448 6.308 0 12.308-2.714 16.466-7.448l59.976-68.291v296.52c0 12.076 9.827 21.9 21.903 21.9s21.9-9.824 21.9-21.9v-135.397h13.653c0 12.076 9.827 21.903 21.903 21.903s21.903-9.827 21.903-21.903v-27.023h13.653c0 12.076 9.824 21.903 21.9 21.903s21.903-9.827 21.903-21.903v-27.020h13.653c0 12.076 9.827 21.9 21.903 21.9s21.9-9.824 21.9-21.9v-174.933z" />
<glyph unicode="&#xe913;" glyph-name="20" d="M168.786 334.548h688.804v331.629h-688.804v-331.629zM182.439 652.524h661.497v-304.326h-661.497v304.326zM964.837 500.364l-48.271 48.268-9.656-9.653 38.615-38.615-38.615-38.615 9.656-9.656 48.268 48.271zM109.814 548.632l-48.271-48.271 48.271-48.268 9.653 9.656-38.615 38.615 38.615 38.615zM480.038 244.961c0-8.361-6.778-15.138-15.138-15.138s-15.138 6.778-15.138 15.138c0 8.361 6.778 15.138 15.138 15.138s15.138-6.778 15.138-15.138zM528.326 244.961c0-8.361-6.778-15.138-15.138-15.138s-15.138 6.778-15.138 15.138c0 8.361 6.778 15.138 15.138 15.138s15.138-6.778 15.138-15.138zM576.614 244.961c0-8.361-6.778-15.138-15.138-15.138s-15.138 6.778-15.138 15.138c0 8.361 6.778 15.138 15.138 15.138s15.138-6.778 15.138-15.138z" />
<glyph unicode="&#xe914;" glyph-name="21" d="M404.395 425.356l3.833-3.454c11.114-10.011 23.494-18.255 36.724-24.631 0.167-0.079 0.335-0.154 0.502-0.232 1.993-0.952 4.004-1.867 6.035-2.734 0.597-0.256 1.205-0.492 1.806-0.741 1.615-0.666 3.232-1.314 4.867-1.922 0.881-0.328 1.768-0.638 2.656-0.949 1.382-0.488 2.765-0.963 4.161-1.41 1.065-0.345 2.137-0.666 3.212-0.986 1.249-0.372 2.499-0.73 3.758-1.068 1.181-0.321 2.365-0.625 3.557-0.918 1.195-0.294 2.389-0.567 3.591-0.833 1.236-0.273 2.471-0.536 3.717-0.778 1.205-0.236 2.417-0.444 3.628-0.649 1.239-0.212 2.475-0.423 3.724-0.604 1.29-0.188 2.591-0.341 3.888-0.498 1.174-0.14 2.345-0.294 3.526-0.406 1.522-0.147 3.055-0.246 4.588-0.352 0.973-0.065 1.939-0.154 2.915-0.201 2.519-0.123 5.045-0.191 7.581-0.191 0.010 0 0.020 0 0.034 0v0c0 0 0 0 0 0 2.546 0 5.086 0.072 7.619 0.195 0.952 0.048 1.894 0.133 2.843 0.198 1.56 0.106 3.12 0.208 4.669 0.355 1.154 0.113 2.297 0.259 3.444 0.396 1.328 0.16 2.659 0.314 3.98 0.509 1.219 0.177 2.423 0.382 3.632 0.587 1.246 0.212 2.492 0.427 3.731 0.669 1.212 0.236 2.417 0.495 3.618 0.758 1.239 0.273 2.475 0.556 3.707 0.857 1.15 0.283 2.297 0.577 3.437 0.887 1.307 0.352 2.604 0.724 3.901 1.109 1.027 0.307 2.051 0.614 3.065 0.942 1.454 0.468 2.898 0.963 4.335 1.471 0.829 0.294 1.662 0.58 2.485 0.891 1.703 0.635 3.393 1.311 5.072 2.004 0.532 0.218 1.072 0.43 1.604 0.659 2.12 0.901 4.215 1.853 6.294 2.85 0.082 0.038 0.164 0.072 0.242 0.113 13.251 6.38 25.648 14.633 36.775 24.655l3.833 3.454-0.085 0.177c29.522 28.426 47.947 68.304 47.947 112.428 0 86.108-70.052 156.16-156.16 156.16s-156.16-70.052-156.16-156.16c0-44.124 18.425-83.999 47.947-112.428l-0.079-0.177zM580.687 412.744c-0.075-0.041-0.154-0.082-0.229-0.126-1.867-1.014-3.761-1.983-5.676-2.915-0.188-0.089-0.372-0.184-0.56-0.273-1.85-0.891-3.727-1.734-5.622-2.546-0.218-0.092-0.43-0.191-0.649-0.283-2.055-0.867-4.134-1.693-6.236-2.464-0.031-0.010-0.058-0.024-0.089-0.034-2.109-0.775-4.246-1.495-6.4-2.171-0.58-0.181-1.167-0.338-1.751-0.509-1.502-0.451-3.007-0.887-4.529-1.29-0.922-0.242-1.847-0.454-2.775-0.679-1.212-0.29-2.427-0.58-3.649-0.843-1.007-0.215-2.021-0.41-3.034-0.604-1.181-0.225-2.362-0.44-3.553-0.638-1.017-0.167-2.038-0.324-3.062-0.471-1.242-0.177-2.488-0.331-3.741-0.478-0.969-0.113-1.935-0.225-2.908-0.317-1.427-0.137-2.864-0.236-4.301-0.328-0.806-0.051-1.611-0.119-2.417-0.157-2.26-0.106-4.529-0.174-6.816-0.174-0.007 0-0.014 0-0.024 0-2.277 0-4.536 0.065-6.786 0.171-0.826 0.038-1.645 0.109-2.468 0.16-1.42 0.092-2.836 0.191-4.243 0.324-0.99 0.096-1.976 0.212-2.963 0.324-1.229 0.143-2.454 0.294-3.669 0.468-1.044 0.147-2.089 0.311-3.13 0.481-1.157 0.191-2.311 0.399-3.458 0.621-1.044 0.198-2.089 0.399-3.127 0.621-1.178 0.253-2.345 0.529-3.509 0.812-0.973 0.232-1.949 0.457-2.915 0.71-1.417 0.375-2.819 0.785-4.219 1.201-0.686 0.205-1.382 0.386-2.065 0.601-2.127 0.669-4.233 1.379-6.318 2.144-0.15 0.055-0.294 0.116-0.444 0.171-1.976 0.73-3.932 1.502-5.868 2.318-0.297 0.126-0.591 0.263-0.884 0.389-1.809 0.778-3.604 1.584-5.373 2.434-0.253 0.119-0.502 0.249-0.754 0.372-1.84 0.898-3.663 1.826-5.461 2.799-0.143 0.075-0.283 0.154-0.423 0.232-8.271 4.519-16.036 9.841-23.214 15.848 15.701 28.259 43.619 47.77 75.66 52.586l15.657-0.242 16.428 0.116c31.7-5.007 59.327-24.463 74.885-52.46-7.209-6.025-15.012-11.366-23.32-15.899zM467.203 537.955c0 25.409 20.671 46.080 46.080 46.080s46.080-20.671 46.080-46.080c0-19.77-12.602-37.304-31.362-43.629l-15.312-0.317-14.442 0.433c-18.569 6.417-31.044 23.904-31.044 43.513zM370.186 537.955c0 78.578 63.928 142.507 142.507 142.507s142.507-63.928 142.507-142.507c0-38.847-15.64-74.097-40.933-99.826-14.694 24.784-37.885 43.315-65.024 52.149 14.698 11.066 23.777 28.566 23.777 47.677 0 32.935-26.798 59.733-59.733 59.733s-59.733-26.798-59.733-59.733c0-18.917 8.946-36.308 23.436-47.398-27.511-8.714-51.009-27.351-65.871-52.429-25.293 25.733-40.933 60.983-40.933 99.826zM354.898 215.538h402.217v-13.653h-402.217v13.653zM354.898 329.885h525.435v-13.653h-525.435v13.653zM354.898 291.768h525.435v-13.653h-525.435v13.653zM354.898 253.652v-13.653h525.435v13.653h-123.218zM183.45 332.943c-21.173 0-38.4-17.227-38.4-38.4 0-31.529 22.883-57.757 52.903-63.092v13.909c-8.472 1.935-16.135 6.007-22.398 11.609 2.55-0.536 5.188-0.826 7.895-0.826 21.173 0 38.4 17.227 38.4 38.4s-17.227 38.4-38.4 38.4zM183.45 269.797c-13.647 0-24.747 11.1-24.747 24.747s11.1 24.747 24.747 24.747 24.747-11.1 24.747-24.747-11.104-24.747-24.747-24.747zM267.076 332.943c-21.173 0-38.4-17.227-38.4-38.4 0-31.529 22.883-57.757 52.903-63.092v13.909c-8.472 1.935-16.135 6.007-22.398 11.609 2.55-0.536 5.188-0.826 7.895-0.826 21.173 0 38.4 17.227 38.4 38.4s-17.227 38.4-38.4 38.4zM267.076 269.797c-13.647 0-24.747 11.1-24.747 24.747s11.1 24.747 24.747 24.747 24.747-11.1 24.747-24.747-11.104-24.747-24.747-24.747z" />
<glyph unicode="&#xe915;" glyph-name="22" d="M328.257 654.292c-86.108 0-156.16-70.052-156.16-156.16 0-44.124 18.425-83.999 47.947-112.428l-0.085-0.174 3.833-3.454c11.114-10.011 23.494-18.255 36.724-24.634 0.167-0.079 0.335-0.154 0.502-0.232 1.993-0.952 4.004-1.867 6.035-2.734 0.597-0.256 1.205-0.492 1.806-0.741 1.615-0.666 3.232-1.314 4.867-1.922 0.881-0.328 1.768-0.638 2.656-0.949 1.382-0.488 2.765-0.963 4.161-1.41 1.065-0.341 2.137-0.666 3.212-0.986 1.249-0.372 2.499-0.73 3.758-1.068 1.181-0.321 2.365-0.625 3.557-0.918 1.195-0.294 2.389-0.567 3.591-0.829 1.236-0.273 2.471-0.536 3.717-0.778 1.205-0.236 2.417-0.444 3.628-0.649 1.239-0.212 2.475-0.423 3.724-0.604 1.29-0.188 2.591-0.341 3.888-0.495 1.174-0.14 2.345-0.294 3.526-0.406 1.522-0.147 3.055-0.249 4.588-0.352 0.973-0.065 1.939-0.154 2.915-0.201 2.519-0.123 5.045-0.191 7.581-0.191 0.010 0 0.020 0 0.034 0 0 0 0 0 0 0h0.003c2.546 0 5.086 0.072 7.619 0.195 0.952 0.044 1.894 0.133 2.843 0.198 1.56 0.106 3.12 0.205 4.669 0.355 1.154 0.113 2.297 0.259 3.444 0.396 1.328 0.16 2.659 0.314 3.98 0.509 1.219 0.177 2.423 0.386 3.632 0.591 1.246 0.212 2.492 0.427 3.731 0.669 1.212 0.236 2.417 0.495 3.618 0.758 1.239 0.273 2.475 0.556 3.707 0.857 1.15 0.283 2.297 0.577 3.437 0.887 1.307 0.352 2.604 0.724 3.901 1.109 1.027 0.307 2.051 0.614 3.065 0.942 1.454 0.464 2.898 0.963 4.335 1.471 0.829 0.294 1.662 0.58 2.485 0.887 1.703 0.635 3.393 1.311 5.072 2.004 0.532 0.222 1.072 0.43 1.604 0.659 2.12 0.901 4.215 1.853 6.294 2.85 0.082 0.038 0.164 0.075 0.242 0.113 13.251 6.38 25.648 14.633 36.775 24.655l3.833 3.454-0.085 0.177c29.522 28.426 47.947 68.304 47.947 112.428 0.003 86.101-70.048 156.153-156.157 156.153zM396.254 372.924c-0.075-0.041-0.154-0.082-0.229-0.126-1.867-1.014-3.761-1.98-5.676-2.912-0.188-0.089-0.372-0.184-0.56-0.273-1.85-0.891-3.727-1.734-5.622-2.546-0.218-0.092-0.43-0.191-0.649-0.283-2.055-0.867-4.134-1.69-6.236-2.461-0.031-0.010-0.058-0.024-0.089-0.034-2.109-0.775-4.246-1.495-6.4-2.171-0.58-0.181-1.167-0.335-1.751-0.509-1.502-0.451-3.007-0.887-4.529-1.29-0.922-0.242-1.847-0.454-2.775-0.679-1.212-0.294-2.427-0.58-3.649-0.843-1.007-0.215-2.021-0.41-3.034-0.604-1.181-0.225-2.362-0.44-3.553-0.635-1.017-0.167-2.038-0.324-3.062-0.471-1.242-0.177-2.488-0.331-3.741-0.478-0.969-0.113-1.935-0.225-2.908-0.317-1.427-0.137-2.864-0.236-4.301-0.328-0.806-0.051-1.611-0.119-2.417-0.157-2.26-0.106-4.529-0.174-6.816-0.174-0.007 0-0.014 0-0.024 0-2.277 0-4.536 0.065-6.786 0.171-0.826 0.038-1.645 0.109-2.468 0.164-1.42 0.092-2.836 0.191-4.243 0.324-0.99 0.096-1.976 0.212-2.963 0.324-1.229 0.143-2.454 0.294-3.669 0.468-1.044 0.15-2.089 0.311-3.13 0.481-1.157 0.191-2.311 0.399-3.458 0.618-1.044 0.198-2.089 0.399-3.127 0.621-1.178 0.253-2.345 0.532-3.509 0.812-0.973 0.236-1.949 0.457-2.915 0.713-1.417 0.375-2.819 0.785-4.219 1.201-0.686 0.205-1.382 0.389-2.065 0.601-2.127 0.669-4.233 1.379-6.318 2.144-0.15 0.055-0.294 0.116-0.444 0.171-1.976 0.73-3.932 1.502-5.868 2.318-0.297 0.126-0.591 0.263-0.884 0.389-1.809 0.778-3.604 1.584-5.373 2.434-0.253 0.119-0.502 0.249-0.754 0.372-1.84 0.898-3.663 1.826-5.461 2.799-0.143 0.075-0.283 0.154-0.423 0.232-8.271 4.519-16.036 9.841-23.214 15.848 15.701 28.259 43.619 47.77 75.66 52.586l15.654-0.249 16.428 0.116c31.7-5.007 59.327-24.467 74.885-52.46-7.206-6.031-15.008-11.377-23.316-15.906zM282.771 498.132c0 25.409 20.671 46.080 46.080 46.080s46.080-20.671 46.080-46.080c0-19.77-12.602-37.304-31.362-43.629l-15.312-0.317-14.442 0.433c-18.569 6.417-31.044 23.904-31.044 43.513zM429.831 398.305c-14.694 24.784-37.885 43.315-65.024 52.149 14.698 11.066 23.777 28.566 23.777 47.677 0 32.935-26.798 59.733-59.733 59.733s-59.733-26.798-59.733-59.733c0-18.917 8.946-36.308 23.436-47.398-27.511-8.714-51.009-27.351-65.871-52.429-25.293 25.733-40.933 60.979-40.933 99.826 0 78.578 63.928 142.507 142.507 142.507s142.507-63.928 142.507-142.507c0-38.844-15.64-74.093-40.933-99.826zM224.437 290.632h207.643v-13.653h-207.643v13.653zM248.784 255.358h158.952v-13.653h-158.952v13.653zM851.903 498.132c0 86.108-70.052 156.16-156.16 156.16s-156.16-70.052-156.16-156.16c0-44.124 18.425-83.999 47.947-112.428l-0.085-0.174 3.833-3.454c11.114-10.011 23.494-18.255 36.724-24.634 0.167-0.079 0.335-0.154 0.502-0.232 1.993-0.952 4.004-1.867 6.035-2.734 0.597-0.256 1.205-0.492 1.806-0.741 1.615-0.666 3.232-1.314 4.867-1.922 0.881-0.328 1.768-0.638 2.656-0.949 1.382-0.488 2.765-0.963 4.161-1.41 1.065-0.341 2.137-0.666 3.212-0.986 1.249-0.372 2.499-0.73 3.758-1.068 1.181-0.321 2.365-0.625 3.557-0.918 1.195-0.294 2.389-0.567 3.591-0.829 1.236-0.273 2.471-0.536 3.717-0.778 1.205-0.236 2.417-0.444 3.628-0.649 1.239-0.212 2.475-0.423 3.724-0.604 1.29-0.188 2.591-0.341 3.888-0.495 1.174-0.14 2.345-0.294 3.526-0.406 1.522-0.147 3.055-0.249 4.588-0.352 0.973-0.065 1.939-0.154 2.915-0.201 2.519-0.123 5.045-0.191 7.581-0.191 0.010 0 0.020 0 0.034 0v0c0 0 0 0 0 0 2.546 0 5.086 0.072 7.619 0.195 0.952 0.044 1.894 0.133 2.843 0.198 1.56 0.106 3.12 0.205 4.669 0.355 1.154 0.113 2.297 0.259 3.444 0.396 1.328 0.16 2.659 0.314 3.98 0.509 1.219 0.177 2.423 0.386 3.632 0.591 1.246 0.212 2.492 0.427 3.731 0.669 1.212 0.236 2.417 0.495 3.618 0.758 1.239 0.273 2.475 0.556 3.707 0.857 1.15 0.283 2.297 0.577 3.437 0.887 1.307 0.352 2.604 0.724 3.901 1.109 1.027 0.307 2.051 0.614 3.065 0.942 1.454 0.464 2.898 0.963 4.335 1.471 0.829 0.294 1.662 0.58 2.485 0.887 1.703 0.635 3.393 1.311 5.072 2.004 0.532 0.222 1.072 0.43 1.604 0.659 2.12 0.901 4.215 1.853 6.294 2.85 0.082 0.038 0.164 0.075 0.242 0.113 13.251 6.38 25.648 14.633 36.775 24.655l3.833 3.454-0.085 0.177c29.529 28.423 47.954 68.301 47.954 112.422zM763.737 372.924c-0.075-0.041-0.154-0.082-0.229-0.126-1.867-1.014-3.761-1.98-5.676-2.912-0.188-0.089-0.372-0.184-0.56-0.273-1.85-0.891-3.727-1.734-5.622-2.546-0.218-0.092-0.43-0.191-0.649-0.283-2.055-0.867-4.134-1.69-6.236-2.461-0.031-0.010-0.058-0.024-0.089-0.034-2.109-0.775-4.246-1.495-6.4-2.171-0.58-0.181-1.167-0.335-1.751-0.509-1.502-0.451-3.007-0.887-4.529-1.29-0.922-0.242-1.847-0.454-2.775-0.679-1.212-0.294-2.427-0.58-3.649-0.843-1.007-0.215-2.021-0.41-3.034-0.604-1.181-0.225-2.362-0.44-3.553-0.635-1.017-0.167-2.038-0.324-3.062-0.471-1.242-0.177-2.488-0.331-3.741-0.478-0.969-0.113-1.935-0.225-2.908-0.317-1.427-0.137-2.864-0.236-4.301-0.328-0.806-0.051-1.611-0.119-2.417-0.157-2.26-0.106-4.529-0.174-6.816-0.174-0.007 0-0.014 0-0.024 0-2.277 0-4.536 0.065-6.786 0.171-0.826 0.038-1.645 0.109-2.468 0.164-1.42 0.092-2.836 0.191-4.243 0.324-0.99 0.096-1.976 0.212-2.963 0.324-1.229 0.143-2.454 0.294-3.669 0.468-1.044 0.15-2.089 0.311-3.13 0.481-1.157 0.191-2.311 0.399-3.458 0.618-1.044 0.198-2.089 0.399-3.127 0.621-1.178 0.253-2.345 0.532-3.509 0.812-0.973 0.236-1.949 0.457-2.915 0.713-1.417 0.375-2.819 0.785-4.219 1.201-0.686 0.205-1.382 0.389-2.065 0.601-2.127 0.669-4.233 1.379-6.318 2.144-0.15 0.055-0.294 0.116-0.444 0.171-1.976 0.73-3.932 1.502-5.868 2.318-0.297 0.126-0.591 0.263-0.884 0.389-1.809 0.778-3.604 1.584-5.373 2.434-0.253 0.119-0.502 0.249-0.754 0.372-1.84 0.898-3.663 1.826-5.461 2.799-0.143 0.075-0.283 0.154-0.423 0.232-8.271 4.519-16.036 9.841-23.214 15.848 15.701 28.259 43.619 47.77 75.66 52.586l15.657-0.242 16.428 0.116c31.7-5.007 59.327-24.467 74.885-52.46-7.209-6.038-15.012-11.383-23.32-15.913zM650.254 498.132c0 25.409 20.671 46.080 46.080 46.080s46.080-20.671 46.080-46.080c0-19.77-12.602-37.304-31.362-43.629l-15.312-0.317-14.442 0.433c-18.569 6.417-31.044 23.904-31.044 43.513zM797.314 398.305c-14.694 24.784-37.885 43.315-65.024 52.149 14.698 11.066 23.777 28.566 23.777 47.677 0 32.935-26.798 59.733-59.733 59.733s-59.733-26.798-59.733-59.733c0-18.917 8.946-36.308 23.436-47.398-27.511-8.714-51.009-27.351-65.871-52.429-25.293 25.733-40.933 60.979-40.933 99.826 0 78.578 63.928 142.507 142.507 142.507s142.507-63.928 142.507-142.507c0.003-38.844-15.64-74.093-40.933-99.826zM591.92 290.632h207.643v-13.653h-207.643v13.653zM616.267 255.358h158.952v-13.653h-158.952v13.653z" />
<glyph unicode="&#xe916;" glyph-name="23" d="M459.24 545.519c0 15.753-5.601 29.344-16.643 40.397-11.049 11.039-24.641 16.64-40.39 16.64-15.756 0-29.348-5.601-40.397-16.643-11.042-11.046-16.643-24.637-16.643-40.393 0-15.763 5.601-29.355 16.643-40.397s24.634-16.643 40.393-16.643c15.756 0 29.348 5.601 40.393 16.643 11.042 11.049 16.643 24.637 16.643 40.397zM402.203 502.132c-12.179 0-22.234 4.137-30.74 12.643s-12.646 18.562-12.646 30.744c0 12.172 4.137 22.231 12.646 30.74 8.513 8.506 18.565 12.643 30.74 12.643 12.169 0 22.228-4.137 30.737-12.643 8.509-8.513 12.646-18.569 12.646-30.74 0-12.175-4.137-22.234-12.643-30.744-8.513-8.506-18.569-12.643-30.74-12.643zM420.267 409.542c4.352 3.232 7.369 8.233 8.977 14.879 2.092 8.786 7.182 14.722 15.551 18.142 8.492 3.458 16.138 2.946 24.084-1.812 5.85-3.379 11.523-4.721 16.78-3.99 5.236 0.73 9.755 2.966 13.428 6.642l5.226 5.226c3.68 3.676 5.915 8.195 6.646 13.435 0.737 5.267-0.604 10.909-4.048 16.876-4.625 7.707-5.199 15.551-1.758 23.982 3.417 8.369 9.353 13.455 18.159 15.558 6.629 1.594 11.629 4.615 14.865 8.97 3.151 4.239 4.748 9.086 4.748 14.404v7.325c0 5.315-1.597 10.158-4.748 14.404-3.236 4.352-8.236 7.369-14.879 8.974-8.793 2.096-14.729 7.182-18.145 15.555-3.444 8.431-2.867 16.278 1.812 24.084 3.383 5.857 4.727 11.503 3.99 16.78-0.73 5.236-2.966 9.755-6.642 13.428l-5.226 5.226c-3.673 3.68-8.192 5.915-13.431 6.646-5.226 0.72-10.902-0.594-16.879-4.048-7.765-4.659-15.486-5.226-23.979-1.758-8.373 3.417-13.459 9.353-15.561 18.166-1.601 6.622-4.618 11.622-8.974 14.862-4.239 3.151-9.086 4.748-14.401 4.748h-7.322c-5.321 0-10.168-1.597-14.397-4.748-4.359-3.232-7.38-8.236-8.98-14.882-2.092-8.789-7.182-14.725-15.555-18.142-8.486-3.475-16.135-2.956-24.081 1.816-5.868 3.383-11.571 4.714-16.78 3.987-5.236-0.73-9.752-2.966-13.428-6.642l-5.229-5.226c-3.68-3.676-5.912-8.192-6.646-13.435-0.734-5.277 0.608-10.923 4.048-16.876 4.622-7.707 5.195-15.551 1.758-23.979-3.42-8.373-9.356-13.462-18.162-15.561-6.632-1.601-11.633-4.622-14.862-8.974-3.151-4.239-4.748-9.083-4.748-14.401v-7.325c0-5.321 1.597-10.168 4.741-14.397 3.236-4.359 8.24-7.38 14.886-8.98 8.789-2.092 14.725-7.182 18.145-15.555 3.441-8.434 2.867-16.282-1.819-24.088-3.376-5.861-4.717-11.503-3.983-16.773 0.73-5.236 2.966-9.755 6.642-13.431l5.229-5.229c3.683-3.683 8.25-5.919 13.585-6.646 5.356-0.744 11.032 0.635 16.722 4.052 7.769 4.659 15.497 5.216 23.979 1.758 8.373-3.42 13.462-9.356 15.558-18.162 1.597-6.625 4.618-11.629 8.974-14.862 4.243-3.151 9.086-4.748 14.401-4.748h7.322c5.311 0 10.158 1.597 14.408 4.748zM392.281 420.499c-1.72 1.28-3.014 3.666-3.837 7.083-3.14 13.196-11.107 22.49-23.675 27.624-5.26 2.147-10.547 3.236-15.715 3.236-7.021 0-13.903-1.993-20.453-5.926-2.973-1.785-5.612-2.522-7.854-2.229-2.372 0.324-4.205 1.205-5.772 2.775l-5.233 5.233c-1.57 1.57-2.454 3.369-2.772 5.656-0.304 2.191 0.468 4.905 2.229 7.967 6.895 11.486 7.799 23.654 2.69 36.175-5.134 12.564-14.428 20.528-27.607 23.668-3.434 0.826-5.823 2.116-7.103 3.843-1.399 1.884-2.051 3.871-2.051 6.257v7.325c0 2.383 0.652 4.372 2.055 6.263 1.277 1.717 3.666 3.007 7.083 3.833 13.196 3.144 22.487 11.107 27.621 23.675 5.106 12.513 4.202 24.682-2.632 36.069-1.823 3.161-2.594 5.874-2.287 8.066 0.321 2.29 1.201 4.086 2.775 5.659l5.233 5.229c1.574 1.574 3.372 2.458 5.659 2.775 2.253 0.311 4.929-0.485 7.967-2.232 11.377-6.827 23.764-7.752 36.168-2.69 12.568 5.13 20.531 14.425 23.671 27.604 0.826 3.437 2.12 5.823 3.843 7.107 1.881 1.396 3.871 2.051 6.257 2.051h7.322c2.383 0 4.372-0.652 6.257-2.051 1.72-1.283 3.014-3.673 3.84-7.086 3.144-13.199 11.107-22.494 23.675-27.624 12.407-5.062 24.859-4.096 36.069 2.632 3.154 1.816 5.833 2.587 8.066 2.29 2.29-0.321 4.086-1.205 5.659-2.775l5.233-5.233c1.57-1.57 2.454-3.366 2.775-5.656 0.304-2.195-0.468-4.908-2.232-7.967-6.895-11.493-7.799-23.661-2.69-36.171 5.13-12.564 14.425-20.531 27.604-23.671 3.434-0.829 5.827-2.12 7.103-3.84 1.399-1.888 2.055-3.878 2.055-6.26v-7.325c0-2.386-0.652-4.372-2.055-6.26-1.28-1.724-3.666-3.014-7.086-3.837-13.196-3.144-22.49-11.11-27.621-23.675-5.11-12.51-4.205-24.678 2.632-36.065 1.826-3.168 2.598-5.881 2.294-8.066-0.321-2.29-1.205-4.089-2.775-5.663l-5.233-5.233c-1.57-1.57-3.366-2.454-5.649-2.772-2.26-0.345-4.943 0.481-7.974 2.229-11.38 6.83-23.76 7.752-36.171 2.69-12.568-5.134-20.531-14.428-23.668-27.6-0.833-3.437-2.127-5.827-3.84-7.103-1.867-1.382-3.915-2.058-6.263-2.058h-7.322c-2.352 0.003-4.4 0.676-6.263 2.055zM760.313 489.923c-1.43 6.547-3.372 13.042-5.779 19.313l-3.755 9.779-56.381-56.020-43.127 43.127 56.023 56.381-9.779 3.755c-6.257 2.4-12.756 4.342-19.319 5.775-6.735 1.471-13.851 2.212-21.149 2.212-14.565 0-28.43-2.778-41.223-8.26-12.742-5.465-24.006-13.036-33.478-22.514-9.482-9.482-17.060-20.746-22.518-33.481-5.475-12.79-8.257-26.662-8.257-41.223 0-5.663 0.498-11.216 1.485-16.486 0.662-3.577 1.509-7.168 2.529-10.725l-140.104-104.414c-9.745-7.584-15.234-17.664-16.309-29.962-1.099-12.448 2.792-23.207 11.5-31.911l51.374-52.743c8.23-8.475 18.186-12.773 29.583-12.773 0.983 0 1.98 0.034 2.987 0.096 12.667 0.819 22.955 6.475 30.577 16.817l103.642 140.971c3.57-1.034 7.233-1.929 10.947-2.669 5.553-1.109 11.363-1.673 17.265-1.673 14.575 0 28.443 2.778 41.226 8.26 12.732 5.458 23.996 13.029 33.478 22.511 9.486 9.482 17.060 20.75 22.514 33.481 5.478 12.79 8.26 26.658 8.26 41.223 0 7.311-0.744 14.428-2.212 21.152zM741.714 432.923c-4.765-11.127-11.366-20.954-19.616-29.204-8.247-8.247-18.070-14.848-29.204-19.616-11.073-4.748-23.132-7.154-35.847-7.154-5.004 0-9.912 0.474-14.589 1.406-4.833 0.966-9.571 2.219-14.077 3.724l-4.717 1.574-109.462-148.89c-5.192-7.038-11.882-10.732-20.463-11.284-8.578-0.556-15.742 2.225-21.903 8.571l-51.442 52.818c-5.861 5.857-8.352 12.762-7.615 21.122 0.744 8.482 4.369 15.148 10.981 20.292l147.821 110.162-1.56 4.683c-1.498 4.489-2.686 9.079-3.533 13.65-0.829 4.458-1.253 9.165-1.253 13.991 0 12.708 2.406 24.767 7.154 35.847 4.768 11.127 11.37 20.954 19.62 29.204 8.24 8.243 18.067 14.845 29.204 19.616 11.080 4.751 23.139 7.158 35.843 7.158 6.325 0 12.459-0.642 18.241-1.901 2.41-0.526 4.806-1.126 7.185-1.802l-50.48-50.801 62.372-62.372 50.804 50.476c0.676-2.376 1.28-4.775 1.802-7.182 1.26-5.772 1.898-11.909 1.898-18.244-0.007-12.704-2.417-24.764-7.165-35.843z" />
<glyph unicode="&#xe917;" glyph-name="24" d="M752.606 688.456h-254.979v-71.557h-113.118v-71.557h-113.114v-111.5h0.15v-227.557h254.829v71.557h113.118v71.557h113.118v339.057zM511.43 674.802h227.372v-84.193h-99.314v26.289h-128.061v57.904zM398.312 603.245h227.372v-84.193h-227.372v84.193zM285.198 531.688h99.314v-26.289h0.15v-57.904h-99.465v84.193zM512.72 219.938h-227.523v213.903h99.465v-41.209h-57.303v-13.653h57.3v-24.463h-57.3v-13.653h57.3v-24.463h-57.3v-13.653h57.3v-24.907h128.058v-57.9zM625.838 291.495h-227.523v213.903h227.523v-213.903zM738.953 363.052h-99.465v82.811h23.719v13.653h-23.719v24.463h57.3v13.653h-57.3v24.463h57.3v13.653h-57.3v41.206h99.465v-213.903zM440.477 464.189h143.196v-13.653h-143.196v13.653zM440.477 426.073h143.196v-13.653h-143.196v13.653zM440.477 387.956h109.616v-13.653h-109.616v13.653z" />
<glyph unicode="&#xe918;" glyph-name="25" d="M499.746 469.524c-2.591 2.051-6.342 1.621-8.393-0.969-10.366-13.070-13.978-42.039-15.234-60.416-4.543 10.247-8.032 24.784-9.885 32.515-2.789 11.633-3.731 15.555-9.165 15.555-4.939 0-5.523-0.956-20.801-34.116-1.83-3.97-3.922-8.509-5.888-12.701-1.249 9.155-2.632 20.75-3.703 29.778-0.98 8.24-1.898 15.964-2.652 21.596-0.44 3.27-3.42 5.574-6.714 5.127-3.27-0.437-5.567-3.444-5.127-6.714 0.751-5.588 1.659-13.247 2.632-21.419 1.318-11.069 2.676-22.518 3.946-31.553 2.086-14.838 2.867-20.388 9.086-20.388 4.861 0 5.13 0.587 19.272 31.273 2.567 5.577 5.612 12.175 8.24 17.698 5.287-21.637 11.609-42.561 23.429-48.357 0.829-0.41 1.734-0.611 2.632-0.611 1.099 0 2.198 0.304 3.161 0.905 1.751 1.092 2.813 3.007 2.813 5.069 0 21.821 4.13 57.76 13.315 69.338 2.055 2.58 1.621 6.342-0.963 8.39zM530.903 456.209c-13.261 0-26.532-14.961-30.218-34.062-2.294-11.899-0.352-23.013 5.199-29.734 3.505-4.25 8.346-6.588 13.619-6.588 13.261 0 26.532 14.961 30.218 34.062 2.294 11.899 0.352 23.013-5.199 29.734-3.505 4.246-8.346 6.588-13.619 6.588zM537.989 422.144c-2.768-14.363-11.964-24.378-18.483-24.378-1.717 0-3.157 0.734-4.407 2.249-3.205 3.884-4.26 11.68-2.679 19.869 2.768 14.363 11.964 24.378 18.483 24.378 1.717 0 3.157-0.734 4.407-2.249 3.209-3.884 4.26-11.68 2.679-19.869zM589.343 456.209c-13.261 0-26.532-14.961-30.218-34.062-2.294-11.899-0.352-23.013 5.199-29.734 3.505-4.25 8.346-6.588 13.619-6.588 13.261 0 26.532 14.961 30.218 34.062 2.294 11.899 0.352 23.013-5.199 29.734-3.505 4.246-8.346 6.588-13.619 6.588zM596.429 422.144c-2.768-14.363-11.964-24.378-18.483-24.378-1.717 0-3.157 0.734-4.407 2.249-3.205 3.884-4.26 11.68-2.679 19.869 2.768 14.363 11.964 24.378 18.483 24.378 1.717 0 3.157-0.734 4.407-2.249 3.209-3.884 4.26-11.68 2.679-19.869zM702.911 260.519c8.032 1.242 15.114 4.871 21.21 10.967 7.656 7.656 11.486 16.845 11.486 27.552s-3.83 19.889-11.486 27.549c-6.1 6.096-13.182 9.728-21.21 10.97v295.12h-96.713v63.283h-191.43v-63.28h-96.71v-418.987h384.853v46.824zM722.596 299.039c0-7.185-2.54-13.319-7.625-18.405-5.079-5.082-11.216-7.622-18.401-7.622s-13.319 2.54-18.401 7.622c-5.086 5.082-7.625 11.216-7.625 18.405 0 7.182 2.54 13.315 7.625 18.401 5.079 5.082 11.213 7.625 18.401 7.625 7.182 0 13.319-2.543 18.401-7.625 5.086-5.082 7.625-11.216 7.625-18.401zM522.851 623.701l69.693 46.131v-93.204l-69.693 46.131 0.71 0.471-0.71 0.471zM586.656 682.308l-76.175-50.418-76.175 50.418h152.351zM428.421 669.833l69.693-46.131-0.71-0.471 0.71-0.471-69.693-46.131v93.204zM331.711 227.345v391.68h83.057v-67.809l88.89 58.836v-90.866h13.653v90.866l88.89-58.836v67.809h83.060v-281.603c-7.636-1.382-14.387-4.98-20.241-10.834-7.656-7.66-11.486-16.845-11.486-27.549 0-10.711 3.83-19.896 11.486-27.552 5.854-5.854 12.605-9.452 20.241-10.831v-33.311h-357.55zM802.202 196.458c-7.66 7.656-16.848 11.489-27.552 11.489-10.711 0-19.893-3.833-27.552-11.489-7.656-7.66-11.486-16.845-11.486-27.549 0-10.711 3.83-19.896 11.486-27.552 7.66-7.656 16.845-11.486 27.552-11.486s19.893 3.83 27.552 11.486c7.656 7.656 11.486 16.845 11.486 27.552 0 10.704-3.83 19.889-11.486 27.549zM793.047 150.504c-5.079-5.082-11.216-7.622-18.401-7.622s-13.319 2.54-18.401 7.622c-5.086 5.082-7.625 11.216-7.625 18.405 0 7.182 2.54 13.315 7.625 18.401 5.079 5.082 11.213 7.625 18.401 7.625 7.182 0 13.319-2.543 18.401-7.625 5.086-5.082 7.625-11.216 7.625-18.401 0.003-7.188-2.536-13.322-7.625-18.405zM807.083 319.372c-0.208 1.761-1.055 3.185-2.543 4.27-1.355 1.082-2.915 1.522-4.676 1.321-1.765-0.205-3.188-1.051-4.27-2.54l-130.133-169.175c-1.085-1.355-1.522-2.915-1.324-4.676 0.208-1.765 1.051-3.188 2.543-4.27 0.539-0.543 1.15-0.918 1.83-1.12 0.676-0.205 1.352-0.304 2.034-0.304 0.945 0 1.898 0.205 2.847 0.611 0.945 0.406 1.693 1.017 2.236 1.83l130.133 169.175c1.082 1.488 1.522 3.116 1.324 4.878z" />
<glyph unicode="&#xe919;" glyph-name="26" d="M499.746 469.524c-2.591 2.051-6.342 1.621-8.393-0.969-10.366-13.070-13.978-42.039-15.234-60.416-4.543 10.247-8.032 24.784-9.885 32.515-2.789 11.633-3.731 15.555-9.165 15.555-4.939 0-5.523-0.956-20.801-34.116-1.83-3.97-3.922-8.509-5.888-12.701-1.249 9.155-2.632 20.75-3.703 29.778-0.98 8.24-1.898 15.964-2.652 21.596-0.44 3.27-3.42 5.574-6.714 5.127-3.27-0.437-5.567-3.444-5.127-6.714 0.751-5.588 1.659-13.247 2.632-21.419 1.318-11.069 2.676-22.518 3.946-31.553 2.086-14.838 2.867-20.388 9.086-20.388 4.861 0 5.13 0.587 19.272 31.273 2.567 5.577 5.612 12.175 8.24 17.698 5.287-21.637 11.609-42.561 23.429-48.357 0.829-0.41 1.734-0.611 2.632-0.611 1.099 0 2.198 0.304 3.161 0.905 1.751 1.092 2.813 3.007 2.813 5.069 0 21.821 4.13 57.76 13.315 69.338 2.055 2.58 1.621 6.342-0.963 8.39zM530.903 456.209c-13.261 0-26.532-14.961-30.218-34.062-2.294-11.899-0.352-23.013 5.199-29.734 3.505-4.25 8.346-6.588 13.619-6.588 13.261 0 26.532 14.961 30.218 34.062 2.294 11.899 0.352 23.013-5.199 29.734-3.505 4.246-8.346 6.588-13.619 6.588zM537.989 422.144c-2.768-14.363-11.964-24.378-18.483-24.378-1.717 0-3.157 0.734-4.407 2.249-3.205 3.884-4.26 11.68-2.679 19.869 2.768 14.363 11.964 24.378 18.483 24.378 1.717 0 3.157-0.734 4.407-2.249 3.209-3.884 4.26-11.68 2.679-19.869zM589.343 456.209c-13.261 0-26.532-14.961-30.218-34.062-2.294-11.899-0.352-23.013 5.199-29.734 3.505-4.25 8.346-6.588 13.619-6.588 13.261 0 26.532 14.961 30.218 34.062 2.294 11.899 0.352 23.013-5.199 29.734-3.505 4.246-8.346 6.588-13.619 6.588zM596.429 422.144c-2.768-14.363-11.964-24.378-18.483-24.378-1.717 0-3.157 0.734-4.407 2.249-3.205 3.884-4.26 11.68-2.679 19.869 2.768 14.363 11.964 24.378 18.483 24.378 1.717 0 3.157-0.734 4.407-2.249 3.209-3.884 4.26-11.68 2.679-19.869zM790.695 260.98c-5.492 12.605-12.947 23.617-22.368 33.041-9.424 9.421-20.436 16.876-33.044 22.368-10.209 4.448-21.012 7.062-32.375 7.905v308.384h-96.713v63.283h-191.43v-63.28h-96.707v-418.987h272.896c0.737-11.834 3.389-23.050 7.997-33.638 5.492-12.605 12.947-23.624 22.368-33.044 9.424-9.424 20.436-16.876 33.044-22.368s26.095-8.233 40.462-8.233c14.367 0 27.856 2.744 40.462 8.233s23.62 12.943 33.044 22.368c9.421 9.421 16.872 20.436 22.368 33.044 5.485 12.605 8.233 26.095 8.233 40.462 0 14.363-2.748 27.856-8.236 40.462zM522.851 623.698l69.693 46.131v-93.204l-69.693 46.131 0.71 0.471-0.71 0.471zM586.656 682.308l-76.175-50.422-76.175 50.422h152.351zM428.421 669.833l69.693-46.131-0.71-0.471 0.71-0.471-69.693-46.131v93.204zM590.954 227.345h-259.243v391.68h83.057v-67.809l88.89 58.836v-90.87h13.653v90.87l88.89-58.836v67.809h83.060v-294.547c-12.298-0.621-23.931-3.318-34.898-8.093-12.605-5.489-23.62-12.947-33.044-22.368-9.421-9.424-16.872-20.432-22.368-33.041-4.608-10.585-7.257-21.801-7.997-33.632zM755.316 215.941c1.287-1.29 2.809-1.929 4.574-1.929h25.62c-0.812-11.254-3.526-21.828-8.134-31.72-4.611-9.895-10.673-18.606-18.2-26.129-7.52-7.523-16.234-13.588-26.126-18.196-9.895-4.611-20.47-7.322-31.72-8.134v25.62c0 1.761-0.642 3.284-1.932 4.574-1.287 1.287-2.813 1.932-4.574 1.932-1.765 0-3.287-0.645-4.574-1.932-1.29-1.29-1.932-2.813-1.932-4.574v-25.62c-11.254 0.812-21.828 3.523-31.72 8.134-9.895 4.608-18.606 10.673-26.126 18.196-7.526 7.523-13.592 16.234-18.2 26.129-4.611 9.892-7.322 20.466-8.134 31.72h25.62c1.761 0 3.287 0.642 4.574 1.929 1.29 1.287 1.932 2.813 1.932 4.577 0 1.761-0.642 3.284-1.932 4.574-1.287 1.287-2.813 1.932-4.574 1.932h-25.62c0.812 11.25 3.523 21.825 8.134 31.72 4.608 9.892 10.673 18.603 18.2 26.126 7.52 7.523 16.23 13.588 26.126 18.2 9.892 4.608 20.466 7.322 31.72 8.134v-25.62c0-1.765 0.642-3.29 1.932-4.577 1.287-1.29 2.809-1.929 4.574-1.929 1.761 0 3.287 0.642 4.574 1.929 1.29 1.287 1.932 2.813 1.932 4.577v25.62c11.25-0.812 21.825-3.526 31.72-8.134 9.892-4.611 18.606-10.677 26.126-18.2 7.526-7.523 13.588-16.234 18.2-26.126 4.608-9.895 7.322-20.47 8.134-31.72h-25.62c-1.765 0-3.287-0.645-4.574-1.932-1.29-1.29-1.932-2.813-1.932-4.574 0-1.765 0.642-3.29 1.932-4.577zM733.863 227.024h-35.785l-37.007 49.411c-1.085 1.492-2.54 2.369-4.372 2.642-1.826 0.27-3.424-0.137-4.775-1.219-1.495-1.085-2.372-2.543-2.642-4.372-0.273-1.83 0.133-3.424 1.219-4.775l39.042-52.053c0.676-0.812 1.457-1.461 2.342-1.932 0.881-0.478 1.86-0.71 2.946-0.71h39.042c1.761 0 3.287 0.642 4.574 1.929 1.29 1.287 1.932 2.813 1.932 4.577 0 1.761-0.642 3.284-1.932 4.574-1.294 1.28-2.819 1.929-4.581 1.929z" />
<glyph unicode="&#xe91a;" glyph-name="27" d="M499.746 470.907c-2.591 2.051-6.342 1.621-8.393-0.969-10.366-13.070-13.978-42.039-15.234-60.416-4.543 10.247-8.032 24.784-9.885 32.515-2.789 11.633-3.731 15.555-9.165 15.555-4.939 0-5.523-0.956-20.801-34.116-1.83-3.97-3.922-8.509-5.888-12.701-1.249 9.155-2.632 20.75-3.703 29.778-0.98 8.24-1.898 15.964-2.652 21.596-0.44 3.27-3.42 5.574-6.714 5.127-3.27-0.437-5.567-3.444-5.127-6.714 0.751-5.588 1.659-13.247 2.632-21.419 1.318-11.069 2.676-22.518 3.946-31.553 2.086-14.838 2.867-20.388 9.086-20.388 4.861 0 5.13 0.587 19.272 31.273 2.567 5.577 5.612 12.175 8.24 17.698 5.287-21.637 11.609-42.561 23.429-48.357 0.829-0.41 1.734-0.611 2.632-0.611 1.099 0 2.198 0.304 3.161 0.905 1.751 1.092 2.813 3.007 2.813 5.069 0 21.821 4.13 57.76 13.315 69.338 2.055 2.58 1.621 6.339-0.963 8.39zM530.903 457.591c-13.261 0-26.532-14.961-30.218-34.062-2.294-11.899-0.352-23.013 5.199-29.734 3.505-4.25 8.346-6.588 13.619-6.588 13.261 0 26.532 14.961 30.218 34.062 2.294 11.899 0.352 23.013-5.199 29.734-3.505 4.246-8.346 6.588-13.619 6.588zM537.989 423.526c-2.768-14.363-11.964-24.378-18.483-24.378-1.717 0-3.157 0.734-4.407 2.249-3.205 3.884-4.26 11.68-2.679 19.869 2.768 14.363 11.964 24.378 18.483 24.378 1.717 0 3.157-0.734 4.407-2.249 3.209-3.884 4.26-11.68 2.679-19.869zM589.343 457.591c-13.261 0-26.532-14.961-30.218-34.062-2.294-11.899-0.352-23.013 5.199-29.734 3.505-4.25 8.346-6.588 13.619-6.588 13.261 0 26.532 14.961 30.218 34.062 2.294 11.899 0.352 23.013-5.199 29.734-3.505 4.246-8.346 6.588-13.619 6.588zM596.429 423.526c-2.768-14.363-11.964-24.378-18.483-24.378-1.717 0-3.157 0.734-4.407 2.249-3.205 3.884-4.26 11.68-2.679 19.869 2.768 14.363 11.964 24.378 18.483 24.378 1.717 0 3.157-0.734 4.407-2.249 3.209-3.884 4.26-11.68 2.679-19.869zM776.158 164.717l-23.992 50.224c4.475 5.827 7.963 12.37 10.472 19.623 2.505 7.25 3.761 14.807 3.761 22.671 0 9.892-1.864 19.18-5.594 27.856-3.727 8.673-8.844 16.268-15.35 22.774s-14.1 11.622-22.774 15.353c-6.267 2.693-12.865 4.376-19.77 5.123v305.719h-96.713v63.28h-191.43v-63.28h-96.71v-418.987h319.099v0.939c0.116-0.15 0.212-0.314 0.328-0.464l-23.992-50.019c-0.273-1.355-0.406-2.642-0.406-3.864s0.338-2.372 1.017-3.458c0.676-0.949 1.594-1.594 2.744-1.929 1.154-0.341 2.205-0.509 3.154-0.509l25.416 3.864 13.015-22.163c0.676-0.949 1.492-1.727 2.441-2.338 0.945-0.611 2.099-0.918 3.458-0.918h0.611c1.219 0 2.338 0.338 3.355 1.017 1.014 0.676 1.86 1.628 2.54 2.847l22.774 48.189c0.27 0 0.474 0 0.611 0 0.133 0 0.338 0 0.611 0 0.27 0 0.474 0 0.611 0 0.133 0 0.338 0 0.611 0l22.774-48.189c0.676-0.949 1.526-1.83 2.54-2.642 1.021-0.812 2.137-1.219 3.355-1.219 0.133 0 0.338 0 0.611 0 1.082 0 2.167 0.307 3.253 0.918 1.082 0.611 1.963 1.386 2.642 2.338l13.015 22.163 25.416-3.864c1.352-0.406 2.505-0.341 3.458 0.205 0.945 0.539 1.761 1.287 2.441 2.236 0.676 1.082 1.116 2.205 1.324 3.355 0.188 1.147-0.048 2.198-0.724 3.147zM522.851 625.080l69.693 46.131v-93.204l-69.693 46.131 0.71 0.471-0.71 0.471zM586.656 683.687l-76.175-50.418-76.175 50.418h152.351zM428.421 671.215l69.693-46.131-0.71-0.471 0.71-0.471-69.693-46.131v93.204zM331.711 228.727v391.68h83.057v-67.809l88.89 58.836v-90.866h13.653v90.866l88.89-58.836v67.809h83.060v-291.864c-7.834-0.563-15.312-2.266-22.395-5.229-8.742-3.659-16.333-8.677-22.774-15.046-6.438-6.373-11.52-13.896-15.247-22.569-3.731-8.677-5.594-17.964-5.594-27.856 0-8.134 1.253-15.756 3.761-22.873 0.758-2.144 1.632-4.212 2.567-6.243h-297.868zM664.323 154.955l-9.151 15.657c-0.679 0.945-1.628 1.731-2.847 2.342s-2.441 0.915-3.659 0.915l-17.691-2.642 15.657 33.956c4.608-4.202 9.759-7.759 15.452-10.673s11.592-4.983 17.691-6.202l-15.452-33.352zM698.685 199.892c-0.679 0-1.423 0-2.236 0s-1.56 0-2.236 0c-0.679 0-1.355 0-2.034 0s-1.29 0-1.83 0c-0.406 0-0.884 0-1.423 0-7.458 0.676-14.37 2.71-20.739 6.1-6.373 3.386-11.998 7.861-16.876 13.421-0.406 0.676-0.782 1.324-1.12 1.932-0.338 0.611-0.847 1.048-1.522 1.321-3.932 4.608-6.984 9.929-9.151 15.964-2.171 6.031-3.253 12.435-3.253 19.214 0 8.134 1.526 15.759 4.574 22.876 3.055 7.117 7.219 13.315 12.506 18.603s11.486 9.458 18.606 12.506c7.113 3.052 14.739 4.574 22.873 4.574s15.759-1.522 22.873-4.574c7.12-3.052 13.319-7.219 18.606-12.506s9.455-11.486 12.506-18.603c3.048-7.117 4.574-14.742 4.574-22.876 0-6.779-1.12-13.251-3.352-19.415-2.239-6.171-5.461-11.831-9.66-16.981-0.273-0.406-0.577-0.748-0.915-1.017-0.341-0.273-0.713-0.611-1.12-1.017-4.881-5.56-10.643-10.032-17.282-13.421-6.642-3.389-13.896-5.424-21.757-6.1h-0.614zM740.98 173.257c-1.219 0.27-2.441 0.133-3.659-0.406-1.219-0.543-2.171-1.495-2.847-2.847l-9.151-15.657-15.452 33.143c6.1 1.352 11.998 3.458 17.691 6.304s10.844 6.438 15.452 10.776l16.268-34.567-18.302 3.253zM721.459 228.564l-3.253 18.91 13.623 13.623c1.082 0.945 1.761 2.034 2.034 3.253 0.27 1.219 0.27 2.304 0 3.253-0.273 1.352-0.884 2.369-1.83 3.052-0.949 0.676-2.103 1.15-3.458 1.423l-18.705 2.642-8.54 17.691c-0.679 0.945-1.495 1.83-2.441 2.642-0.949 0.812-2.103 1.219-3.458 1.219-1.219 0-2.338-0.341-3.355-1.017-1.014-0.679-1.864-1.628-2.54-2.847l-8.335-17.080-18.91-2.441c-1.355-0.406-2.475-0.949-3.352-1.628-0.884-0.679-1.526-1.696-1.932-3.052-0.273-1.219-0.273-2.441 0-3.659 0.27-1.219 0.744-2.171 1.423-2.847l13.015-14.234-3.253-18.91c-0.406-1.355-0.341-2.611 0.205-3.761 0.539-1.154 1.352-2.068 2.441-2.748 0.945-0.679 2.034-1.116 3.253-1.321s2.505 0.031 3.864 0.71l16.876 9.151 16.876-9.151c0.406-0.406 0.881-0.611 1.423-0.611 0.539 0 1.15 0 1.83 0 0.676 0 1.352 0.133 2.034 0.406 0.676 0.27 1.287 0.539 1.83 0.812 1.082 0.676 1.898 1.594 2.441 2.748 0.532 1.161 0.601 2.413 0.195 3.772zM705.195 253.979c-0.679-0.679-1.154-1.594-1.423-2.744-0.273-1.154-0.406-2.205-0.406-3.154l1.219-9.151-8.54 4.676c-0.273 0.27-0.713 0.44-1.321 0.509-0.614 0.068-1.256 0.099-1.932 0.099-0.543 0-1.051-0.034-1.526-0.099-0.474-0.072-1.051-0.239-1.727-0.509l-8.335-4.676 1.83 9.151c0.406 0.945 0.44 2 0.099 3.154-0.338 1.15-0.983 2.062-1.929 2.744l-6.506 6.506 10.981 1.83c0.945 0 1.898 0.307 2.847 0.918 0.945 0.611 1.761 1.386 2.441 2.338l3.864 8.54 3.864-8.54c0.406-0.949 1.017-1.727 1.83-2.338s1.761-1.12 2.847-1.526l8.946-1.219-7.12-6.509z" />
<glyph unicode="&#xe91b;" glyph-name="28" d="M499.746 469.524c-2.591 2.051-6.342 1.621-8.393-0.969-10.366-13.070-13.978-42.039-15.234-60.416-4.543 10.247-8.032 24.784-9.885 32.515-2.789 11.633-3.731 15.555-9.165 15.555-4.939 0-5.523-0.956-20.801-34.116-1.83-3.97-3.922-8.509-5.888-12.701-1.249 9.155-2.632 20.75-3.703 29.778-0.98 8.24-1.898 15.964-2.652 21.596-0.44 3.27-3.42 5.574-6.714 5.127-3.27-0.437-5.567-3.444-5.127-6.714 0.751-5.588 1.659-13.247 2.632-21.419 1.318-11.069 2.676-22.518 3.946-31.553 2.086-14.838 2.867-20.388 9.086-20.388 4.861 0 5.13 0.587 19.272 31.273 2.567 5.577 5.612 12.175 8.24 17.698 5.287-21.637 11.609-42.561 23.429-48.357 0.829-0.41 1.734-0.611 2.632-0.611 1.099 0 2.198 0.304 3.161 0.905 1.751 1.092 2.813 3.007 2.813 5.069 0 21.821 4.13 57.76 13.315 69.338 2.055 2.58 1.621 6.342-0.963 8.39zM530.903 456.209c-13.261 0-26.532-14.961-30.218-34.062-2.294-11.899-0.352-23.013 5.199-29.734 3.505-4.25 8.346-6.588 13.619-6.588 13.261 0 26.532 14.961 30.218 34.062 2.294 11.899 0.352 23.013-5.199 29.734-3.505 4.246-8.346 6.588-13.619 6.588zM537.989 422.144c-2.768-14.363-11.964-24.378-18.483-24.378-1.717 0-3.157 0.734-4.407 2.249-3.205 3.884-4.26 11.68-2.679 19.869 2.768 14.363 11.964 24.378 18.483 24.378 1.717 0 3.157-0.734 4.407-2.249 3.209-3.884 4.26-11.68 2.679-19.869zM589.343 456.209c-13.261 0-26.532-14.961-30.218-34.062-2.294-11.899-0.352-23.013 5.199-29.734 3.505-4.25 8.346-6.588 13.619-6.588 13.261 0 26.532 14.961 30.218 34.062 2.294 11.899 0.352 23.013-5.199 29.734-3.505 4.246-8.346 6.588-13.619 6.588zM596.429 422.144c-2.768-14.363-11.964-24.378-18.483-24.378-1.717 0-3.157 0.734-4.407 2.249-3.205 3.884-4.26 11.68-2.679 19.869 2.768 14.363 11.964 24.378 18.483 24.378 1.717 0 3.157-0.734 4.407-2.249 3.209-3.884 4.26-11.68 2.679-19.869zM791.303 242.33c-5.079 5.082-11.216 7.625-18.401 7.625h-45.548v26.027c0 5.014-0.748 10.131-2.236 15.35-1.495 5.216-3.731 10.168-6.711 14.845-2.983 4.676-6.676 8.81-11.080 12.404-1.399 1.14-2.891 2.147-4.42 3.089v311.009h-96.713v63.283h-191.43v-63.28h-96.707v-418.987h272.66v-87.364c0-1.761 0.642-3.287 1.932-4.577 1.287-1.287 2.809-1.929 4.574-1.929h39.042c1.761 0 3.287 0.642 4.574 1.929 1.29 1.29 1.932 2.816 1.932 4.577v9.151l12.404-6.304c6.1-3.116 12.537-5.458 19.316-7.018 6.775-1.556 13.554-2.338 20.333-2.338h65.068c7.182 0 13.52 2.372 19.012 7.117 5.485 4.748 8.909 10.776 10.267 18.097l9.759 78.080c0 0.133 0 0.27 0 0.406 0 0.133 0 0.27 0 0.406 0 7.185-2.543 13.319-7.629 18.401zM522.851 623.701l69.693 46.131v-93.204l-69.693 46.131 0.71 0.471-0.71 0.471zM586.656 682.308l-76.175-50.418-76.175 50.418h152.351zM428.421 669.833l69.693-46.131-0.71-0.471 0.71-0.471-69.693-46.131v93.204zM629.757 132.837h-26.027v97.601h26.027v-97.601zM640.836 241.517c-1.287 1.287-2.813 1.932-4.574 1.932h-39.042c-1.765 0-3.287-0.645-4.574-1.932-1.29-1.29-1.932-2.813-1.932-4.574v-9.598h-259.004v391.68h83.057v-67.809l88.89 58.836v-90.866h13.653v90.866l88.89-58.836v67.809h83.060v-292.157c-1.058 0.061-2.116 0.017-3.178-0.157-2.034-0.341-3.932-1.188-5.693-2.54-1.628-1.219-2.881-2.714-3.765-4.475-0.881-1.765-1.321-3.731-1.321-5.898v-35.584l-32.532-41.885v0.611c0 1.765-0.645 3.287-1.935 4.577zM776.158 147.070c-0.679-4.202-2.54-7.625-5.594-10.271-3.048-2.642-6.608-3.963-10.673-3.963h-65.068c-5.83 0-11.622 0.676-17.388 2.034-5.762 1.352-11.216 3.321-16.367 5.898l-18.299 9.151v65.27l44.124 56.73c0.539 0.676 0.918 1.352 1.116 2.034 0.208 0.676 0.307 1.352 0.307 2.034l0.205 37.82c8.54-2.441 14.978-7.458 19.316-15.046 4.338-7.595 6.506-15.183 6.506-22.774v-32.532c0-1.765 0.642-3.29 1.932-4.577 1.287-1.29 2.809-1.929 4.574-1.929h52.053c3.523 0 6.54-1.219 9.045-3.659 2.509-2.441 3.83-5.424 3.966-8.946l-9.755-77.274z" />
<glyph unicode="&#xe91c;" glyph-name="29" d="M499.821 469.524c-2.591 2.051-6.342 1.621-8.393-0.969-10.366-13.070-13.978-42.039-15.234-60.416-4.543 10.247-8.032 24.784-9.885 32.515-2.789 11.633-3.731 15.555-9.165 15.555-4.939 0-5.523-0.956-20.801-34.116-1.83-3.97-3.922-8.509-5.888-12.701-1.249 9.155-2.632 20.75-3.703 29.778-0.98 8.24-1.898 15.964-2.652 21.596-0.44 3.27-3.42 5.574-6.714 5.127-3.27-0.437-5.567-3.444-5.127-6.714 0.751-5.588 1.659-13.247 2.632-21.419 1.318-11.069 2.676-22.518 3.946-31.553 2.086-14.838 2.867-20.388 9.086-20.388 4.861 0 5.13 0.587 19.272 31.273 2.567 5.577 5.612 12.175 8.24 17.698 5.287-21.637 11.609-42.561 23.429-48.357 0.829-0.41 1.734-0.611 2.632-0.611 1.099 0 2.198 0.304 3.161 0.905 1.751 1.092 2.813 3.007 2.813 5.069 0 21.821 4.13 57.76 13.315 69.338 2.055 2.58 1.621 6.342-0.963 8.39zM530.978 456.209c-13.261 0-26.532-14.961-30.218-34.062-2.294-11.899-0.352-23.013 5.199-29.734 3.505-4.25 8.346-6.588 13.619-6.588 13.261 0 26.532 14.961 30.218 34.062 2.294 11.899 0.352 23.013-5.199 29.734-3.505 4.246-8.346 6.588-13.619 6.588zM538.064 422.144c-2.768-14.363-11.964-24.378-18.483-24.378-1.717 0-3.157 0.734-4.407 2.249-3.205 3.884-4.26 11.68-2.679 19.869 2.768 14.363 11.964 24.378 18.483 24.378 1.717 0 3.157-0.734 4.407-2.249 3.209-3.884 4.26-11.68 2.679-19.869zM603.037 449.621c-3.505 4.25-8.346 6.588-13.619 6.588-13.261 0-26.532-14.961-30.218-34.062-2.294-11.899-0.352-23.013 5.199-29.734 3.505-4.25 8.346-6.588 13.619-6.588 13.261 0 26.532 14.961 30.218 34.062 2.297 11.895 0.352 23.009-5.199 29.734zM596.504 422.144c-2.768-14.363-11.964-24.378-18.483-24.378-1.717 0-3.157 0.734-4.407 2.249-3.205 3.884-4.26 11.68-2.679 19.869 2.768 14.363 11.964 24.378 18.483 24.378 1.717 0 3.157-0.734 4.407-2.249 3.209-3.884 4.26-11.68 2.679-19.869zM785.585 252.396c-0.543 1.219-1.355 2.202-2.441 2.946s-2.307 1.12-3.659 1.12h-54.289l-22.211 49.79v326.427h-96.713v63.283h-191.43v-63.28h-96.71v-418.987h318.816l8.544-8.673-16.063-64.051c-0.406-1.355-0.372-2.642 0.099-3.864 0.478-1.219 1.188-2.236 2.137-3.052 1.082-0.679 2.27-1.085 3.557-1.219 1.29-0.133 2.543 0.133 3.765 0.812l55.917 32.126 55.917-32.126c0.539-0.273 1.082-0.478 1.628-0.611 0.539-0.137 1.082-0.205 1.628-0.205 0.676 0 1.352 0.099 2.034 0.304 0.676 0.205 1.352 0.509 2.034 0.918 0.945 0.812 1.659 1.83 2.137 3.052 0.474 1.219 0.505 2.505 0.099 3.864l-16.063 64.051 39.854 40.462c0.945 0.812 1.522 1.86 1.731 3.151 0.191 1.287 0.089 2.543-0.317 3.761zM522.926 623.701l69.693 46.131v-93.204l-69.693 46.131 0.71 0.471-0.71 0.471zM586.732 682.308l-76.175-50.418-76.175 50.418h152.351zM428.496 669.833l69.693-46.131-0.71-0.471 0.71-0.471-69.693-46.131v93.204zM331.786 227.345v391.68h83.057v-67.809l88.89 58.836v-90.866h13.653v90.866l88.89-58.836v67.809h83.060v-307.34c-0.102-0.184-0.242-0.328-0.328-0.526l-24.399-54.695h-54.289c-1.355 0-2.577-0.375-3.659-1.12-1.085-0.748-1.901-1.727-2.441-2.946-0.406-1.219-0.505-2.478-0.307-3.765 0.208-1.29 0.782-2.338 1.731-3.151l17.862-18.135h-291.721zM732.515 211.528c-0.812-0.812-1.355-1.765-1.628-2.847-0.273-1.085-0.273-2.171 0-3.253l13.22-52.869-45.954 26.231c-0.543 0.27-1.085 0.474-1.628 0.611-0.543 0.133-1.085 0.205-1.628 0.205s-1.085-0.072-1.628-0.205c-0.543-0.137-1.085-0.341-1.628-0.611l-45.954-26.231 13.216 52.866c0.27 1.082 0.27 2.167 0 3.253-0.273 1.082-0.812 2.034-1.628 2.847l-31.515 31.925h43.107c1.219 0 2.369 0.338 3.458 1.017 1.082 0.676 1.898 1.628 2.441 2.847l20.128 45.141 20.128-45.141c0.539-1.219 1.352-2.171 2.441-2.847 1.082-0.679 2.236-1.017 3.458-1.017h43.107l-31.512-31.921z" />
<glyph unicode="&#xe91d;" glyph-name="30" d="M168.837 463.070h208.493v208.493h-208.493v-208.493zM182.49 657.91h181.187v-181.187h-181.187v181.187zM408.992 463.070h208.493v208.493h-208.493v-208.493zM422.646 657.91h181.187v-181.187h-181.187v181.187zM649.148 672.143v-208.493h208.493v208.493h-208.493zM843.988 477.303h-181.187v181.187h181.187v-181.187zM168.837 223.857h208.493v208.493h-208.493v-208.493zM182.49 418.697h181.187v-181.187h-181.187v181.187zM408.992 223.857h208.493v208.493h-208.493v-208.493zM422.646 418.697h181.187v-181.187h-181.187v181.187zM649.148 432.93v-208.493h208.493v208.493h-208.493zM843.988 238.090h-181.187v181.187h181.187v-181.187z" />
<glyph unicode="&#xe91e;" glyph-name="31" d="M166.513 463.36h208.493v208.493h-208.493v-208.493zM180.166 658.2h181.187v-181.187h-181.187v181.187zM406.665 463.36h447.427v208.493h-447.427v-208.493zM420.318 658.2h420.12v-181.187h-420.12v181.187zM167.731 224.147h447.427v208.493h-447.427v-208.493zM181.385 418.987h420.12v-181.187h-420.12v181.187zM646.823 433.22v-208.493h208.493v208.493h-208.493zM841.663 238.38h-181.187v181.187h181.187v-181.187z" />
<glyph unicode="&#xe91f;" glyph-name="32" d="M376.091 486.895h-208.493v185.071h208.493v-185.071zM181.251 500.548h181.187v157.764h-181.187v-157.764zM376.091 224.034h-208.493v232.858h208.493v-232.858zM181.251 237.687h181.187v205.551h-181.187v-205.551zM616.25 428.868h-208.497v242.627h208.497v-242.627zM421.407 442.522h181.19v215.32h-181.19v-215.32zM616.25 224.614h-208.497v174.36h208.497v-174.36zM421.407 238.268h181.19v147.053h-181.19v-147.053zM856.402 562.569h-208.493v108.261h208.493v-108.261zM661.562 576.222h181.187v80.954h-181.187v-80.954zM856.402 226.021h-208.493v306.234h208.493v-306.234zM661.562 239.674h181.187v278.927h-181.187v-278.927z" />
<glyph unicode="&#xe920;" glyph-name="33" d="M324.267 687.247v-151.323h375.467v151.323h-375.467zM686.080 549.577h-348.16v124.017h348.16v-124.017zM518.827 234.878v252.71h-13.653v-252.71l-76.858 76.855-9.653-9.653 93.351-93.327 93.324 93.327-9.653 9.653z" />
<glyph unicode="&#xe921;" glyph-name="34" d="M845.65 648.694v-419.82h-661.497v419.82h661.497zM859.303 662.347h-688.804v-447.126h688.804v447.126zM508.075 659.432h13.653v-98.294h-13.653v98.294zM504.084 320.956h13.653v-105.236h-13.653v105.236zM514.901 306.804c-72.776 0-131.983 59.208-131.983 131.98 0 72.776 59.208 131.983 131.983 131.983 72.772 0 131.98-59.208 131.98-131.983s-59.204-131.98-131.98-131.98zM514.901 557.114c-65.246 0-118.33-53.084-118.33-118.33s53.084-118.327 118.33-118.327 118.327 53.081 118.327 118.327-53.077 118.33-118.327 118.33zM595.606 438.787l-48.271 48.268-9.653-9.656 38.615-38.615-38.615-38.615 9.653-9.653 48.271 48.268zM434.193 438.781l48.271-48.265 9.656 9.653-38.615 38.615 38.615 38.615-9.656 9.656-48.268-48.271z" />
<glyph unicode="&#xe922;" glyph-name="35" d="M873.015 272.288h-688.804v331.633h688.804v-331.633zM197.864 285.942h661.497v304.326h-661.497v-304.326zM528.613 694.607l-48.268-48.271 9.653-9.656 38.615 38.615 38.615-38.615 9.656 9.656-48.271 48.268zM528.616 181.603l48.268 48.271-9.656 9.653-38.615-38.615-38.615 38.615-9.653-9.653 48.268-48.271zM803.618 387.263c0-8.361-6.778-15.138-15.138-15.138s-15.138 6.778-15.138 15.138c0 8.361 6.778 15.138 15.138 15.138s15.138-6.778 15.138-15.138zM803.618 435.552c0-8.361-6.778-15.138-15.138-15.138s-15.138 6.778-15.138 15.138c0 8.361 6.778 15.138 15.138 15.138s15.138-6.778 15.138-15.138zM803.618 483.84c0-8.361-6.778-15.138-15.138-15.138s-15.138 6.778-15.138 15.138c0 8.361 6.778 15.138 15.138 15.138s15.138-6.778 15.138-15.138z" />
<glyph unicode="&#xe923;" glyph-name="36" d="M472.771 395.612l-18.231 40.854h-85.228l-18.012-40.854h-16.254l69.192 153.542h15.814l69.192-153.542h-16.473zM375.241 450.089h73.366l-36.902 83.033-36.465-83.033zM677.031 395.612l-18.231 40.854h-85.228l-18.012-40.854h-16.254l69.192 153.542h15.814l69.192-153.542h-16.473zM579.502 450.089h73.366l-36.902 83.033-36.465-83.033zM273.667 342.757h482.352v-13.114h-482.352v13.114zM273.667 342.757h241.176v-13.114h-241.176v13.114z" />
<glyph unicode="&#xe924;" glyph-name="37" d="M758.746 199.233h-482.352v482.352h482.352v-482.352zM290.048 212.886h455.045v455.045h-455.045v-455.045zM623.264 546.021c-6.386 6.386-13.018 10.708-21.507 14.008-8.728 3.413-18.050 5.185-30.242 5.745-14.104 0.642-18.77 0.792-53.941 0.792-35.185 0-39.84-0.154-53.89-0.792-12.025-0.553-21.357-2.324-30.259-5.751-8.472-3.294-15.104-7.612-21.49-14.001-6.352-6.304-10.667-12.919-14.008-21.463-3.413-8.721-5.181-18.043-5.738-30.232-0.642-14.046-0.795-18.702-0.795-53.886s0.15-39.84 0.795-53.89c0.55-12.018 2.324-21.354 5.748-30.256 3.294-8.468 7.612-15.104 14.001-21.494 6.386-6.383 13.018-10.704 21.507-14.005 8.728-3.413 18.050-5.185 30.242-5.745 14.032-0.642 18.688-0.795 53.89-0.795s39.854 0.154 53.886 0.795c12.029 0.553 21.361 2.324 30.263 5.751 8.468 3.294 15.101 7.612 21.49 13.998 6.386 6.386 10.704 13.018 14.008 21.511 3.413 8.731 5.185 18.057 5.741 30.239 0.645 14.042 0.795 18.698 0.795 53.89s-0.15 39.847-0.795 53.886c-0.55 12.022-2.321 21.357-5.748 30.263-3.338 8.499-7.642 15.118-13.954 21.432zM629.596 387.113c-0.625-13.602-2.935-21.060-4.884-26.040-2.656-6.786-5.936-11.831-10.967-16.862s-10.073-8.311-16.858-10.967c-4.987-1.949-12.448-4.263-26.027-4.884-14.203-0.659-18.534-0.754-53.289-0.754-35.567 0-39.673 0.174-53.272 0.751-13.592 0.625-21.053 2.935-26.037 4.884-6.793 2.659-11.834 5.939-16.862 10.97-5.038 5.038-8.318 10.076-10.97 16.858-1.946 4.983-4.26 12.442-4.884 26.027-0.655 14.199-0.751 18.531-0.751 53.286 0 35.567 0.174 39.673 0.751 53.268 0.625 13.602 2.935 21.060 4.884 26.040 2.656 6.782 5.936 11.827 10.97 16.858 5.035 5.035 10.076 8.318 16.858 10.97 4.987 1.949 12.448 4.263 26.023 4.884 14.261 0.659 18.592 0.754 53.289 0.754 35.57 0 39.673-0.174 53.268-0.751 13.592-0.625 21.053-2.935 26.037-4.884 6.789-2.656 11.831-5.939 16.862-10.974s8.315-10.073 10.967-16.855c1.946-4.983 4.26-12.442 4.884-26.027 0.659-14.196 0.754-18.528 0.754-53.286 0.003-35.577-0.171-39.677-0.748-53.268zM517.571 502.678c-34.348 0-62.293-27.945-62.293-62.293s27.945-62.293 62.293-62.293 62.293 27.945 62.293 62.293-27.945 62.293-62.293 62.293zM517.571 391.496c-26.955 0-48.889 21.931-48.889 48.886s21.931 48.886 48.889 48.886 48.886-21.931 48.886-48.886-21.927-48.886-48.886-48.886zM587.704 521.090c-5.857 0-10.626-4.765-10.626-10.626s4.765-10.626 10.626-10.626c5.861 0 10.626 4.765 10.626 10.626s-4.765 10.626-10.626 10.626z" />
<glyph unicode="&#xe925;" glyph-name="38" d="M287.935 308.326l34.103-34.103 9.387 9.387 0.014-0.010 65.089 65.089 57.859-57.859v-0.184l48.183-48.186h19.309l-40.861 40.861h0.184l-84.675 84.678-74.479-74.479-34.113 34.113-84.675-84.675h19.309zM471.279 669.396v-167.769h-307.22v-304.858h397.018v167.769h307.22v304.858h-397.018zM547.424 210.422h-369.712v277.552h369.712v-277.552zM854.647 378.191h-293.567v63.826l34.079 34.079 34.103-34.103 9.387 9.387 0.010-0.010 65.089 65.089 57.859-57.859v-0.188l48.183-48.183h19.309l-40.861 40.861h0.184l-84.675 84.675-74.479-74.476-34.113 34.113-34.079-34.079v40.305h-76.145v154.115h369.712v-277.552zM719.821 224.84v100.14h-13.653v-100.14l-28.733 28.733-9.653-9.653 45.227-45.203 45.203 45.203-9.656 9.653zM826.245 224.84v100.14h-13.653v-100.14l-28.733 28.733-9.653-9.653 45.227-45.203 45.203 45.203-9.656 9.653zM313.382 643.273v-100.14h13.653v100.14l28.733-28.733 9.653 9.653-45.227 45.203-45.203-45.203 9.656-9.653zM206.957 643.273v-100.14h13.653v100.14l28.733-28.733 9.653 9.653-45.227 45.203-45.203-45.203 9.656-9.653z" />
<glyph unicode="&#xe926;" glyph-name="39" d="M726.688 610.867v0.079h-105.243v29.764h122.88v68.267h-136.533v-98.031h-205.923c-73.646 0-133.564-59.918-133.564-133.564v-190.519h-84.903v-13.653h378.098v-86.187h13.653v86.187h32.85v-86.187h13.653v86.187h235.517v204.172c0 72.615-58.259 131.837-130.485 133.485zM621.445 678.26v17.067h109.227v-40.96h-109.227v23.893zM351.222 286.863h-69.263v190.519c0 66.12 53.791 119.91 119.91 119.91 58.399 0 107.155-41.97 117.75-97.331h-156.931v-213.101h-11.465zM521.779 477.382v-77.698l-121.586 86.624h121.221c0.215-2.949 0.365-5.919 0.365-8.926zM376.337 286.863v199.448h0.321l139.923-99.686-140.025-99.761h-0.218zM400.090 286.863l121.689 86.699v-86.699h-121.689zM843.52 286.863h-308.087v190.519c0 52.572-30.543 98.133-74.81 119.91h147.169v-130.659h13.653v130.659h102.164c66.12 0 119.91-53.791 119.91-119.91v-190.519z" />
<glyph unicode="&#xe927;" glyph-name="40" d="M172.23 273.585h447.427v314.307h-447.427v-314.307zM185.883 574.239h420.12v-287h-420.12v287zM375.897 474.064v-86.651l53.75 43.325zM651.322 588.428v-140.227h208.493v140.227h-208.493zM846.162 461.855h-181.187v112.92h181.187v-112.92zM739.28 544.573v-52.514l32.577 26.255zM651.322 413.273v-140.227h208.493v140.227h-208.493zM846.162 286.7h-181.187v112.92h181.187v-112.92zM739.28 369.418v-52.514l32.577 26.259z" />
<glyph unicode="&#xe928;" glyph-name="41" d="M368.34 360.854h-208.493v208.493h208.497v-208.493zM173.5 374.508h181.19v181.187h-181.19v-181.187zM160.594 327.598h207.643v-13.653h-207.643v13.653zM160.594 289.485h207.643v-13.653h-207.643v13.653zM160.594 251.368h158.952v-13.653h-158.952v13.653zM486.54 487.148h-82.203v82.2h82.203v-82.2zM417.993 500.801h54.897v54.893h-54.897v-54.893zM510.901 569.378h101.83v-13.653h-101.83v13.653zM510.901 531.261h77.032v-13.653h-77.032v13.653zM486.54 367.759h-82.203v82.2h82.203v-82.2zM417.993 381.413h54.897v54.893h-54.897v-54.893zM510.901 449.99h101.83v-13.653h-101.83v13.653zM510.901 411.873h77.032v-13.653h-77.032v13.653zM486.54 248.368h-82.203v82.2h82.203v-82.2zM417.993 262.021h54.897v54.893h-54.897v-54.893zM510.901 330.598h101.83v-13.653h-101.83v13.653zM510.901 292.482h77.032v-13.653h-77.032v13.653zM727.122 487.134h-82.203v82.2h82.203v-82.2zM658.572 500.787h54.897v54.893h-54.897v-54.893zM751.479 569.361h101.83v-13.653h-101.83v13.653zM751.479 531.248h77.032v-13.653h-77.032v13.653zM727.122 367.742h-82.203v82.2h82.203v-82.2zM658.572 381.396h54.897v54.893h-54.897v-54.893zM751.479 449.973h101.83v-13.653h-101.83v13.653zM751.479 411.856h77.032v-13.653h-77.032v13.653zM727.122 248.354h-82.203v82.2h82.203v-82.2zM658.572 262.007h54.897v54.893h-54.897v-54.893zM751.479 330.585h101.83v-13.653h-101.83v13.653zM751.479 292.468h77.032v-13.653h-77.032v13.653zM306.398 650.523h56.552v-13.653h-56.552v13.653zM392.544 650.523h56.552v-13.653h-56.552v13.653zM478.686 650.523h56.552v-13.653h-56.552v13.653zM564.832 650.523h56.552v-13.653h-56.552v13.653zM650.977 650.523h56.552v-13.653h-56.552v13.653z" />
<glyph unicode="&#xe929;" glyph-name="42" d="M174.469 199.049h447.427v447.427h-447.427v-447.427zM188.122 632.822h420.12v-420.12h-420.12v420.12zM653.561 408.122v-208.493h208.493v208.493h-208.493zM848.401 213.279h-181.187v181.187h181.187v-181.187zM298.919 464.507h207.643v-13.653h-207.643v13.653zM298.919 426.39h207.643v-13.653h-207.643v13.653zM323.267 388.277h158.952v-13.653h-158.952v13.653zM701.211 331.216h113.193v-13.653h-113.193v13.653zM714.482 293.103h86.647v-13.653h-86.647v13.653zM653.978 646.55v-208.493h208.493v208.493h-208.493zM848.817 451.71h-181.187v181.187h181.187v-181.187zM701.628 569.648h113.193v-13.653h-113.193v13.653zM714.899 531.531h86.647v-13.653h-86.647v13.653zM970.117 422.799l-48.271 48.268-9.653-9.653 38.615-38.615-38.615-38.615 9.653-9.656 48.271 48.271zM66.823 422.796l48.271-48.268 9.656 9.656-38.615 38.615 38.615 38.615-9.656 9.653-48.268-48.268z" />
<glyph unicode="&#xe92a;" glyph-name="43" d="M368.667 375.538l-18.231 40.854h-85.231l-18.012-40.854h-16.254l69.192 153.542h15.814l69.192-153.542h-16.469zM271.138 430.012h73.366l-36.902 83.033-36.465-83.033zM458.929 569.484h13.114v-234.349h-13.114v234.349zM804.492 459.134h-184.443v-13.653h184.443l-42.721-42.725 9.653-9.653 59.194 59.218-59.194 59.194-9.653-9.656z" />
<glyph unicode="&#xe92b;" glyph-name="44" d="M167.598 574.925v-331.633h688.804v331.633h-688.804zM842.749 256.945h-661.497v304.326h661.497v-304.326zM334.507 668.16h-167.759v-73.957h167.759v73.957zM320.853 607.857h-140.452v46.65h140.452v-46.65zM521.813 668.16h-167.759v-73.957h167.759v73.957zM508.16 607.857h-140.452v46.65h140.452v-46.65zM709.12 668.16h-167.759v-73.957h167.759v73.957zM695.467 607.857h-140.452v46.65h140.452v-46.65z" />
<glyph unicode="&#xe92c;" glyph-name="45" d="M359.311 669.324v-427.206h497.657v427.206h-497.657zM843.315 255.775h-470.351v399.896h470.351v-399.896zM169.875 595.367h167.759v73.957h-167.759v-73.957zM183.528 655.671h140.452v-46.65h-140.452v46.65zM169.875 501.501h167.759v73.957h-167.759v-73.957zM183.528 561.804h140.452v-46.65h-140.452v46.65zM169.875 406.781h167.759v73.957h-167.759v-73.957zM183.528 467.084h140.452v-46.65h-140.452v46.65z" />
<glyph unicode="&#xe92d;" glyph-name="46" d="M166.018 654.776v-427.206h497.657v427.206h-497.657zM179.671 641.123h470.351v-399.899h-470.351v399.899zM853.111 654.776h-167.759v-73.957h167.759v73.957zM839.458 594.473h-140.452v46.65h140.452v-46.65zM853.111 560.91h-167.759v-73.957h167.759v73.957zM839.458 500.606h-140.452v46.65h140.452v-46.65zM853.111 466.19h-167.759v-73.957h167.759v73.957zM839.458 405.886h-140.452v46.65h140.452v-46.65z" />
<glyph unicode="&#xe92e;" glyph-name="47" d="M169.755 419.249v-116.593h688.804v116.593h-688.804zM844.906 316.31h-661.497v89.286h661.497v-89.286zM239.275 370.852v-0.003l-17.111 17.111-9.653-9.656 17.108-17.111-17.592-17.592 9.656-9.653 27.249 27.249zM169.755 271.322v-116.593h688.804v116.593h-688.804zM844.906 168.383h-661.497v89.286h661.497v-89.286zM239.275 222.925v-0.003l-17.111 17.111-9.653-9.656 17.108-17.108-17.592-17.592 9.656-9.656 27.249 27.252zM169.755 736.689v-287.259h688.804v287.259h-688.804zM844.906 463.084h-661.497v259.953h661.497v-259.953zM240.377 669.594l-0.003 0.003 17.111 17.108-9.656 9.656-17.108-17.111-17.592 17.596-9.656-9.656 27.252-27.249z" />
<glyph unicode="&#xe92f;" glyph-name="48" d="M590.763 153.699h116.593v582.991h-116.593v-582.991zM693.702 723.036v-555.684h-89.286v555.684h89.286zM657.855 231.52v-0.003l-17.111 17.108-9.653-9.653 17.108-17.111-17.592-17.592 9.653-9.653 27.252 27.249zM738.69 153.699h116.593v582.991h-116.593v-582.991zM841.626 723.036v-555.684h-89.286v555.684h89.286zM805.782 231.52l-0.003-0.003-17.108 17.108-9.656-9.653 17.111-17.111-17.592-17.592 9.653-9.653 27.249 27.249zM167.509 153.699h393.073v582.991h-393.073v-582.991zM546.929 723.036v-555.684h-365.766v555.684h365.766zM217.006 211.722h0.003l17.108-17.108 9.656 9.653-17.111 17.111 17.596 17.592-9.656 9.653-27.249-27.249z" />
<glyph unicode="&#xe930;" glyph-name="49" d="M171.844 157.112h116.593v582.991h-116.593v-582.991zM185.498 726.449h89.286v-555.684h-89.286v555.684zM385.71 234.933l-0.003-0.003-17.108 17.108-9.656-9.653 17.111-17.111-17.592-17.592 9.653-9.653 27.249 27.249zM743.021 740.103v-582.991h116.593v582.991h-116.593zM845.961 170.766h-89.286v555.684h89.286v-555.684zM792.521 198.028l27.249 27.249-26.767 26.761-9.653-9.653 17.108-17.111-17.592-17.592zM318.618 157.112h393.073v582.991h-393.073v-582.991zM332.271 170.766v149.654l82.19 82.19 41.547-41.547-0.215-0.215 9.656-9.653 0.215 0.215 0.215-0.215 9.656 9.653-0.215 0.215 106.4 109.814 116.323-116.323v-183.788h-365.773zM698.033 726.449v-352.587l-106.667 106.667 0.075 0.075-9.653 9.653-0.075-0.072-0.075 0.072-9.653-9.653 0.075-0.075-106.4-109.81-41.547 41.544 0.075 0.075-9.653 9.653-0.075-0.072-0.075 0.072-9.653-9.653 0.075-0.075-72.533-72.533v386.72h365.759zM238.937 252.037l-27.249-27.249 26.764-26.761 9.656 9.653-17.111 17.111 17.592 17.592zM497.323 521.67c34.983 0 63.447 28.464 63.447 63.447s-28.464 63.447-63.447 63.447-63.447-28.464-63.447-63.447 28.464-63.447 63.447-63.447zM497.323 634.911c27.457 0 49.794-22.337 49.794-49.794s-22.337-49.794-49.794-49.794-49.794 22.337-49.794 49.794 22.337 49.794 49.794 49.794z" />
<glyph unicode="&#xe931;" glyph-name="50" d="M537.747 550.4v30.123h-358.905v-73.957h358.905v30.72h331.305v13.114h-331.305zM524.093 520.219h-331.599v46.65h331.599v-46.65zM245.193 643.168c6.509 5.844 9.766 13.967 9.766 24.368 0 8.977-2.867 16.067-8.602 21.265s-13.51 7.799-23.334 7.799c-3.243 0-5.99-0.177-8.233-0.532s-4.144-0.666-5.7-0.932l2.202 24.132h36.867v13.933h-50.668l-3.734-47.599 7.001-4.134c2.311 0.532 5.001 1.010 8.066 1.434s5.642 0.635 7.735 0.635c14.845 0 22.265-5.823 22.265-17.466 0-6.089-1.843-10.711-5.533-13.868s-9.066-4.734-16.135-4.734c-4 0-8.332 0.556-13.001 1.666s-8.8 2.69-12.401 4.734v-14.199c6.223-3.509 14.776-5.267 25.668-5.267 12.005-0.003 21.262 2.922 27.771 8.765zM300.827 634.399c11.199 0 19.524 4.11 24.965 12.332s8.168 20.801 8.168 37.734c0 16.442-2.799 28.935-8.4 37.468s-13.844 12.8-24.733 12.8c-11.158 0-19.456-4.076-24.9-12.233s-8.168-20.835-8.168-38.035c0-16.401 2.799-28.843 8.4-37.335s13.824-12.732 24.668-12.732zM287.727 713.001c2.734 5.734 7.1 8.602 13.1 8.602s10.39-2.922 13.165-8.765 4.168-15.299 4.168-28.368c0-13.111-1.389-22.555-4.168-28.334s-7.168-8.666-13.165-8.666-10.366 2.843-13.1 8.533-4.099 15.176-4.099 28.467 1.365 22.798 4.099 28.532zM366.694 673.399c7.158 0 12.568 2.567 16.234 7.7s5.499 12.81 5.499 23.033c0 9.776-1.877 17.299-5.632 22.566s-9.124 7.898-16.101 7.898c-14.176 0-21.265-10.158-21.265-30.467 0-9.868 1.857-17.456 5.567-22.767s8.94-7.963 15.698-7.963zM360.359 718.8c1.29 3.243 3.4 4.867 6.332 4.867 5.868 0 8.8-6.557 8.8-19.668s-2.932-19.668-8.8-19.668c-2.932 0-5.045 1.625-6.332 4.867s-1.932 8.178-1.932 14.8 0.642 11.558 1.932 14.8zM408.893 665.068c0-9.909 1.867-17.5 5.601-22.767s8.977-7.898 15.732-7.898c7.066 0 12.445 2.557 16.135 7.666s5.533 12.776 5.533 22.999c0 9.824-1.901 17.357-5.7 22.6s-9.124 7.868-15.968 7.868c-14.223 0-21.333-10.158-21.333-30.467zM438.961 665.068c0-13.199-2.912-19.801-8.735-19.801-2.932 0-5.055 1.642-6.366 4.932s-1.966 8.243-1.966 14.865 0.655 11.534 1.966 14.732 3.434 4.799 6.366 4.799c5.823 0.003 8.735-6.506 8.735-19.528zM378.027 635.733l54.067 97.468h-12.933l-54.067-97.468zM711.827 225.536h-532.985v-73.957h532.985v30.72h157.225v13.114h-157.225v30.123zM698.173 165.233h-505.679v46.65h505.679v-46.65zM217.958 280.747l38.335 86.398v10.936h-67.4v-13.8h50.668l-38.533-83.535zM295.093 292.478c-4 0-8.332 0.556-13.001 1.666s-8.8 2.69-12.401 4.734v-14.199c6.223-3.509 14.776-5.267 25.668-5.267 12.001 0 21.258 2.922 27.767 8.765s9.766 13.967 9.766 24.368c0 8.977-2.867 16.067-8.602 21.265s-13.51 7.799-23.334 7.799c-3.243 0-5.99-0.177-8.233-0.532s-4.144-0.666-5.7-0.932l2.202 24.132h36.867v13.933h-50.668l-3.734-47.599 7.001-4.134c2.311 0.532 5.001 1.010 8.066 1.434s5.642 0.635 7.735 0.635c14.845 0 22.265-5.823 22.265-17.466 0-6.089-1.843-10.711-5.533-13.868s-9.066-4.734-16.131-4.734zM366.694 379.614c-14.176 0-21.265-10.158-21.265-30.467 0-9.868 1.857-17.456 5.567-22.767s8.943-7.967 15.701-7.967c7.158 0 12.568 2.567 16.234 7.7s5.499 12.81 5.499 23.033c0 9.776-1.877 17.299-5.632 22.566s-9.127 7.902-16.104 7.902zM366.694 329.346c-2.932 0-5.045 1.625-6.332 4.867s-1.932 8.178-1.932 14.8 0.642 11.558 1.932 14.8 3.4 4.867 6.332 4.867c5.868 0 8.8-6.557 8.8-19.668s-2.935-19.668-8.8-19.668zM408.893 310.081c0-9.909 1.867-17.5 5.601-22.767s8.977-7.898 15.732-7.898c7.066 0 12.445 2.557 16.135 7.666s5.533 12.776 5.533 22.999c0 9.824-1.901 17.357-5.7 22.6s-9.124 7.868-15.968 7.868c-14.223 0-21.333-10.158-21.333-30.467zM423.861 324.813c1.311 3.202 3.434 4.799 6.366 4.799 5.823 0 8.735-6.509 8.735-19.535 0-13.199-2.912-19.801-8.735-19.801-2.932 0-5.055 1.642-6.366 4.932s-1.966 8.243-1.966 14.865 0.655 11.54 1.966 14.739zM365.094 280.747h12.933l54.067 97.468h-12.933z" />
<glyph unicode="&#xe932;" glyph-name="51" d="M162.635 571.378v-287.259h688.804v287.259h-688.804zM837.786 297.772h-661.497v259.953h661.497v-259.953zM395.878 518.564c-1.758 0-3.277 0.642-4.56 1.925-1.283 1.28-1.925 2.799-1.925 4.56 0 1.754 0.642 3.273 1.925 4.56 1.283 1.283 2.802 1.925 4.56 1.925h25.948c1.621 0 3.041-0.543 4.256-1.625s1.956-2.362 2.229-3.85l4.055-26.959h151.631c0.942 0 1.857-0.205 2.737-0.611 0.877-0.403 1.587-0.945 2.13-1.621 0.676-0.679 1.147-1.454 1.42-2.335 0.27-0.881 0.338-1.792 0.205-2.737l-12.974-97.304c-0.273-1.621-1.014-2.973-2.229-4.055s-2.635-1.621-4.256-1.621h-129.737c-1.621 0-3.041 0.536-4.256 1.621-1.215 1.079-1.963 2.362-2.229 3.854l-18.65 124.262h-20.279zM435.913 368.251c5.069 5.065 11.179 7.601 18.347 7.601 7.161 0 13.278-2.533 18.347-7.601 5.065-5.069 7.601-11.182 7.601-18.347s-2.536-13.278-7.601-18.347c-5.069-5.065-11.185-7.601-18.347-7.601-7.165 0-13.278 2.533-18.347 7.601s-7.601 11.182-7.601 18.347 2.536 13.278 7.601 18.347zM434.193 486.127l12.773-84.326h118.385l11.151 84.326h-142.309zM463.384 359.028c-2.57 2.563-5.612 3.85-9.124 3.85-3.516 0-6.557-1.287-9.12-3.85-2.567-2.57-3.85-5.612-3.85-9.124 0-3.516 1.283-6.557 3.85-9.124 2.563-2.567 5.608-3.85 9.12-3.85s6.554 1.283 9.124 3.85c2.563 2.567 3.85 5.608 3.85 9.124s-1.287 6.554-3.85 9.124zM582.885 368.251c5.069-5.069 7.601-11.182 7.601-18.347s-2.533-13.278-7.601-18.347c-5.069-5.065-11.185-7.601-18.347-7.601-7.165 0-13.278 2.533-18.347 7.601s-7.601 11.182-7.601 18.347 2.533 13.278 7.601 18.347c5.069 5.065 11.182 7.601 18.347 7.601 7.161 0 13.278-2.533 18.347-7.601zM573.658 340.78c2.563 2.567 3.85 5.608 3.85 9.124 0 3.512-1.287 6.554-3.85 9.124-2.567 2.563-5.612 3.85-9.124 3.85-3.516 0-6.554-1.287-9.12-3.85-2.567-2.57-3.85-5.612-3.85-9.124 0-3.516 1.283-6.557 3.85-9.124s5.608-3.85 9.12-3.85c3.516 0 6.557 1.283 9.124 3.85z" />
</font>
</defs>
</svg>
